Udemy | Boomberman (2018) PCRec [H.264/720p-LQ]

 Статистика раздачи 
Размер: 4.14 ГБ   |  Зарегистрирован: 10 авг 2019, 10:36   |   .torrent скачан: 0 раз
Сидеров: 11  [ 0 байт/сек ]     Личеров: 3  [ 0 байт/сек ]  
  
Аватара пользователя
 
Раздал: 6.64 ТБ
Скачал: 597.93 ГБ
Ратио: 11.363
Сообщения: 257246
Стаж: 2 года 11 месяцев 1 день
СообщениеДобавлено: 10 авг 2019, 10:36


Udemy | Boomberman (2018) PCRec [H.264/720p-LQ]

Автор (режиссер): Шмойлов Кирилл
Производство: Udemy
Жанр: Программирование, C#

Описание:
С помощью языка программирования C#, мы реализуем знаменитую игру Бомбермен.

Продолжительность: 07:26:11
Качество видео: PCRec

Видео: AVC/H.264, 1280x720, ~979-1456 Kbps
Аудио: AAC, 2 ch, 127-128 Kbps
Код: Выделить всё
Общее
Полное имя                               : .\[Udemy] [Шмойлов Кирилл] Boomberman\Урок 11 Дальняя дорога.mp4
Формат                                   : MPEG-4
Профиль формата                          : Base Media
Идентификатор кодека                     : isom (isom/iso2/avc1/mp41)
Размер файла                             : 354 Мбайт
Продолжительность                        : 40 м. 35 с.
Общий поток                              : 1219 Кбит/сек
Программа кодирования                    : Lavf58.12.100

Видео
Идентификатор                            : 1
Формат                                   : AVC
Формат/Информация                        : Advanced Video Codec
Профиль формата                          : [url=http://nnmclub.to/mailto:Main@L3.1]Main@L3.1[/url]
Настройки формата                        : CABAC / 4 Ref Frames
Параметр CABAC формата                   : Да
Параметр RefFrames формата               : 4 кадра
Параметр GOP формата                     : M=4, N=60
Идентификатор кодека                     : avc1
Идентификатор кодека/Информация          : Advanced Video Coding
Продолжительность                        : 40 м. 35 с.
Битрейт                                  : 1082 Кбит/сек
Номинальный битрейт                      : 3000 Кбит/сек
Ширина                                   : 1280 пикселей
Высота                                   : 720 пикселей
Соотношение сторон                       : 16:9
Режим частоты кадров                     : Постоянный
Частота кадров                           : 30,000 кадров/сек
Цветовое пространство                    : YUV
Субдискретизация насыщенности            : 4:2:0
Битовая глубина                          : 8 бит
Тип развёртки                            : Прогрессивная
Бит/(Пиксели*Кадры)                      : 0.039
Размер потока                            : 314 Мбайт (89%)
Библиотека кодирования                   : x264 core 148
Настройки программы                      : cabac=1 / ref=3 / deblock=1:-1:-1 / analyse=0x1:0x111 / me=umh / subme=6 / psy=1 / psy_rd=1.00:0.15 / mixed_ref=1 / me_range=16 / chroma_me=1 / trellis=1 / 8x8dct=0 / cqm=0 / deadzone=21,11 / fast_pskip=1 / chroma_qp_offset=-3 / threads=22 / lookahead_threads=3 / sliced_threads=0 / nr=0 / decimate=1 / interlaced=0 / bluray_compat=0 / constrained_intra=0 / bframes=3 / b_pyramid=2 / b_adapt=1 / b_bias=0 / direct=1 / weightb=1 / open_gop=0 / weightp=2 / keyint=60 / keyint_min=6 / scenecut=0 / intra_refresh=0 / rc_lookahead=60 / rc=cbr / mbtree=1 / bitrate=3000 / ratetol=1.0 / qcomp=0.60 / qpmin=0 / qpmax=69 / qpstep=4 / vbv_maxrate=3000 / vbv_bufsize=6000 / nal_hrd=none / filler=0 / ip_ratio=1.40 / aq=1:1.00
Codec configuration box                  : avcC

Аудио
Идентификатор                            : 2
Формат                                   : AAC LC
Формат/Информация                        : Advanced Audio Codec Low Complexity
Идентификатор кодека                     : mp4a-40-2
Продолжительность                        : 40 м. 35 с.
Duration_LastFrame                       : -5 мс.
Вид битрейта                             : Постоянный
Битрейт                                  : 128 Кбит/сек
Каналы                                   : 2 канала
Channel layout                           : L R
Частота                                  : 48,0 КГц
Частота кадров                           : 46,875 кадров/сек (1024 SPF)
Метод сжатия                             : С потерями
Размер потока                            : 37,2 Мбайт (11%)
Default                                  : Да
AlternateGroup/String                    : 1

Скриншоты:

Время раздачи: 24/7 (круглосуточно) (до появления первых 3-5 скачавших)
Не забывайте говорить Спасибо. Не уходите с раздачи!   
Торрент: Зарегистрирован [10 авг 2019, 10:36]
Статус:
Проверен
 
.torrent скачан: 0 раз
Хэш: a1e229702f572f789c382a3919a66842d3d569fc
Размер: 4.14 ГБ (4 440 982 258 байт)
   Стать Автором раздачи
   
Цитата
  • Похожие торренты
    Ответы
    Просмотры
    Последнее сообщение

Вернуться в Программирование

Кто сейчас на конференции

Сейчас эту тему просматривают: нет зарегистрированных пользователей и гости: 1