Извините, я ищу комнату для пинг-понга и свою девушку / Excuse Me, I'm Looking for the Ping-pong Room and My Girlfriend (Бернхард Венгер / Bernhard Wenger) [2018, Австрия, Германия, Швеция, комедия, драма, HDTV 1080i] VO + Original + Sub (Rus, Fra)

 Статистика раздачи 
Размер: 597.39 МБ   |  Зарегистрирован: 07 июн 2019, 11:54   |   .torrent скачан: 0 раз
Сидеров: 10  [ 0 байт/сек ]     Личеров: 2  [ 0 байт/сек ]  
  
Аватара пользователя
 
Раздал: 2.75 ТБ
Скачал: 89.62 ГБ
Ратио: 31.394
Сообщения: 244008
Стаж: 4 года 8 дней

Извините, я ищу комнату для пинг-понга и свою девушку
Excuse Me, I'm Looking for the Ping-pong Room and My Girlfriend
#77Страна: Австрия, Германия, Швеция
Жанр: комедия, драма, мелодрама, короткий метр
Год выпуска: 2018
Продолжительность: 00:23:13Перевод: Одноголосый закадровый (ralf124c41+)
Субтитры: русские, французские
Оригинальная аудиодорожка: английский/немецкий/шведский
Режиссер: Бернхард Венгер / Bernhard Wenger
В ролях: Расмус Лютандер / Rasmus Luthander (Aron), Анна Острём / Anna Åström (Arons Girlfriend - Ida), Карл Ахляйтнер / Carl Achleitner (Friendly Man), Элли Тринжу / Elli Tringou (Maya)
Описание: Во время отдыха в фешенебельном спа-отеле молодые люди ссорятся. Девушка хлопает дверью и уходит. Молодой человек не слишком настойчиво пытается выяснить, куда она пропала и вернется ли вообще. В причудливом мире альпийского курорта он начнет новую главу своей жизни...
Доп. информация: Hot Bird (13.0°E) ARTE Français HD DVB-S2
Награды: приз "Золотой Реми" WorldFest-Houston International Film & Video Festival 2018; номинация на лучший короткометражный фильм Московского международного кинофестиваля 2018; 2 приза Diagonale Festival of Austrian Film 2018 (лучшая короткометражка, приз молодежного жюри самому многообещающему режиссеру года); приз зрительских симпатий за короткометражный фильм Filmfestival Max Ophuls Preis 2018; приз за лучший австрийский фильм Festival of Nations 2018; приз художнику-постановщику Berlin Student Film Festival 2018; приз за лучшую короткометражку Austrian Film Award 2019; др. награды.
Качество видео: HDTV 1080i
Формат видео: MKV
Видео: AVC (H.264), 1920х1080 (16:9), 25 fps, ~3140 kbps avg, 8 bits
Аудио 1: AC3, 2 ch, 48 kHz, 192 kbps - русский
Аудио 2: AC3, 2 ch, 48 kHz, 192 kbps - английский/немецкий/шведский
Формат субтитров: softsub (ASS/SSA) - русские, hardsub (неотключаемые) - французские
Код: Выделить всё
General
Unique ID                                : 231477824503901393952011693429351373126 (0xAE2501E2D3EB64FE61D0E7096B31D946)
Complete name                            : [apreder]MM_Excuse_Me_I'm_Looking_for_the_Ping-pong_Room_and_My_Girlfriend(2018)HDTV.1080i.mkv
Format                                   : Matroska
Format version                           : Version 2
File size                                : 597 MiB
Duration                                 : 23 min 13 s
Overall bit rate                         : 3 595 kb/s
Movie name                               : Excuse Me, I'm Looking for the Ping-pong Room and My Girlfriend
Released date                            : 2018-04-22
Encoded date                             : UTC 2019-06-07 11:08:07
Writing application                      : mkvmerge v34.0.0 ('Sight and Seen') 64-bit
Writing library                          : libebml v1.3.7 + libmatroska v1.5.0
Cover                                    : Yes
Attachments                              : cover.jpg / small_cover.jpg
ACTOR                                    : Rasmus Luthander, Elli Tringou, Anna Astrom
DIRECTOR                                 : Bernhard Wenger
GENRE                                    : Short, Comedy, Drama
IMDB                                     : tt7693694
KEYWORDS                                 : rutracker.org
LAW_RATING                               : 16+
Video
ID                                       : 1
Format                                   : AVC
Format/Info                              : Advanced Video Codec
Format profile                           : High@L4
Format settings                          : CABAC / 4 Ref Frames
Format settings, CABAC                   : Yes
Format settings, Reference frames        : 4 frames
Codec ID                                 : V_MPEG4/ISO/AVC
Bit rate                                 : 3 140 kb/s
Width                                    : 1 920 pixels
Height                                   : 1 080 pixels
Display aspect ratio                     : 16:9
Frame rate mode                          : Variable
Original frame rate                      : 25.000 FPS
Standard                                 : Component
Color space                              : YUV
Chroma subsampling                       : 4:2:0
Bit depth                                : 8 bits
Scan type                                : Interlaced
Scan type, store method                  : Separated fields
Scan order                               : Top Field First
Default                                  : Yes
Forced                                   : No
Color range                              : Limited
Color primaries                          : BT.709
Transfer characteristics                 : BT.709
Matrix coefficients                      : BT.709
Audio #1
ID                                       : 2
Format                                   : AC-3
Format/Info                              : Audio Coding 3
Commercial name                          : Dolby Digital
Codec ID                                 : A_AC3
Duration                                 : 23 min 13 s
Bit rate mode                            : Constant
Bit rate                                 : 192 kb/s
Channel(s)                               : 2 channels
Channel layout                           : L R
Sampling rate                            : 48.0 kHz
Frame rate                               : 31.250 FPS (1536 SPF)
Bit depth                                : 16 bits
Compression mode                         : Lossy
Stream size                              : 31.9 MiB (5%)
Language                                 : Russian
Service kind                             : Complete Main
Default                                  : Yes
Forced                                   : No
Audio #2
ID                                       : 3
Format                                   : AC-3
Format/Info                              : Audio Coding 3
Commercial name                          : Dolby Digital
Codec ID                                 : A_AC3
Duration                                 : 23 min 13 s
Bit rate mode                            : Constant
Bit rate                                 : 192 kb/s
Channel(s)                               : 2 channels
Channel layout                           : L R
Sampling rate                            : 48.0 kHz
Frame rate                               : 31.250 FPS (1536 SPF)
Bit depth                                : 16 bits
Compression mode                         : Lossy
Stream size                              : 31.9 MiB (5%)
Language                                 : Multiple languages
Service kind                             : Complete Main
Default                                  : No
Forced                                   : No
Text
ID                                       : 4
Format                                   : ASS
Codec ID                                 : S_TEXT/ASS
Codec ID/Info                            : Advanced Sub Station Alpha
Compression mode                         : Lossless
Language                                 : Russian
Default                                  : No
Forced                                   : No

[4'610]
Не забывайте говорить Спасибо. Не уходите с раздачи!   
Торрент: Зарегистрирован [07 июн 2019, 11:54]
Статус:
Проверен
 
.torrent скачан: 0 раз
Хэш: d87fb25a93016ec61f4a275f79eec2a352c2c1bb
Размер: 597.39 МБ (626 406 902 байт)
   Стать Автором раздачи
   
Ничто так не успокаивает, как инструктаж по технике безопасности.
Цитата
  • Похожие торренты
    Ответы
    Просмотры
    Последнее сообщение

Вернуться в Арт-хаус (HDRip, DVDRip)

Кто сейчас на конференции

Сейчас эту тему просматривают: нет зарегистрированных пользователей и гости: 1