Queen - A Day At The Races (1976) Japanese Edition, 2018 [FLAC|lossless|image + .cue] <Rock, Hard Rock, Classic Rock>

 Статистика раздачи 
Размер: 308.32 МБ   |  Зарегистрирован: 07 авг 2019, 22:41   |   .torrent скачан: 0 раз
Сидеров: 4  [ 0 байт/сек ]     Личеров: 0  [ 0 байт/сек ]  
  
Аватара пользователя
Я на сайте
 
Раздал: 6.4 ТБ
Скачал: 483.58 ГБ
Ратио: 13.557
Сообщения: 243114
Стаж: 2 года 6 месяцев 22 дня

Queen - A Day At The Races (1976) Japanese Edition, 2018

Страна: Великобритания
Год: 1976/2018
Лейбл: Universal Music Company; Queen Productions Ltd.
Номер по каталогу: UICY-40254
Жанр: Rock, Hard Rock, Classic Rock
Продолжительность: 00:44:27

Кодек: FLAC
Битрейт: Lossless
Тип рипа: image + .cue

Треклист:
01. Tie Your Mother Down (04:49)
02. You Take My Breath Away (05:06)
03. Long Away (03:33)
04. The Millionaire Waltz (04:56)
05. You And I (03:29)
06. Somebody To Love (04:58)
07. White Man (04:59)
08. Good Old Fashioned Lover Boy (02:53)
09. Drowse (03:45)
10. Teo Torriatte (Let Us Cling Together) (05:53)
Код: Выделить всё
Exact Audio Copy V1.1 from 23. June 2015

EAC extraction logfile from 24. January 2019, 22:46

Queen / A Day At The Races (UICY-40254)

Used drive  : TSSTcorpDVDWBD SH-B123L   Adapter: 0  ID: 4

Read mode               : Secure
Utilize accurate stream : Yes
Defeat audio cache      : Yes
Make use of C2 pointers : No

Read offset correction                      : 6
Overread into Lead-In and Lead-Out          : No
Fill up missing offset samples with silence : Yes
Delete leading and trailing silent blocks   : No
Null samples used in CRC calculations       : Yes
Used interface                              : Installed external ASPI interface

Used output format              : User Defined Encoder
Selected bitrate                : 768 kBit/s
Quality                         : High
Add ID3 tag                     : No
Command line compressor         : C:\Program Files (x86)\Exact Audio Copy\FLAC\FLAC.EXE
Additional command line options : -6 -V -T "ARTIST=%artist%" -T "TITLE=%title%" -T "ALBUM=%albumtitle%" -T "DATE=%year%" -T "TRACKNUMBER=%tracknr%" -T "GENRE=%genre%" -T "COMMENT=%comment%" -T "BAND=%albuminterpret%" -T "ALBUMARTIST=%albuminterpret%" -T "COMPOSER=%composer%" %haslyrics%--tag-from-file=LYRICS="%lyricsfile%"%haslyrics% -T "DISCNUMBER=%cdnumber%" -T "TOTALDISCS=%totalcds%" -T "TOTALTRACKS=%numtracks%" %hascover%--picture="%coverfile%"%hascover% %source% -o %dest%

TOC of the extracted CD

     Track |   Start  |  Length  | Start sector | End sector
    ---------------------------------------------------------
        1  |  0:00.00 |  4:49.64 |         0    |    21738
        2  |  4:49.64 |  5:06.48 |     21739    |    44736
        3  |  9:56.37 |  3:33.30 |     44737    |    60741
        4  | 13:29.67 |  4:56.35 |     60742    |    82976
        5  | 18:26.27 |  3:29.51 |     82977    |    98702
        6  | 21:56.03 |  4:58.70 |     98703    |   121122
        7  | 26:54.73 |  4:59.36 |    121123    |   143583
        8  | 31:54.34 |  2:53.13 |    143584    |   156571
        9  | 34:47.47 |  3:45.68 |    156572    |   173514
       10  | 38:33.40 |  5:53.38 |    173515    |   200027

Range status and errors

Selected range

     Filename E:\MUSIC\Queen - A Day At The Races (UICY-40254).wav

     Peak level 100.0 %
     Extraction speed 3.3 X
     Range quality 100.0 %
     Test CRC 95512AAE
     Copy CRC 95512AAE
     Copy OK

No errors occurred

AccurateRip summary

Track  1  accurately ripped (confidence 1)  [063AFBDF]  (AR v2)
Track  2  accurately ripped (confidence 1)  [A4F163D2]  (AR v2)
Track  3  accurately ripped (confidence 1)  [A6C09E0D]  (AR v2)
Track  4  accurately ripped (confidence 1)  [5F7C8EB1]  (AR v2)
Track  5  accurately ripped (confidence 1)  [EA54AD48]  (AR v2)
Track  6  accurately ripped (confidence 1)  [AE712A7C]  (AR v2)
Track  7  accurately ripped (confidence 1)  [B7A0B8EA]  (AR v2)
Track  8  accurately ripped (confidence 1)  [17FC2CBD]  (AR v2)
Track  9  accurately ripped (confidence 1)  [D34342DB]  (AR v2)
Track 10  accurately ripped (confidence 1)  [556CB5BB]  (AR v2)

All tracks accurately ripped

End of status report

==== Log checksum 1BABADF076151B587EF221F6D83D3D91566539FEF9E3D3A3DAE20A7E984F0EDF ====
Время раздачи: с 09:00 до 23:00 (UTC\GTM+2)
#7
Код: Выделить всё
[b]Поглощение/вытеснение [/b]
[b]Только с согласия релизера[/b]
[b][u][i]fanDYNAMO[/b][/i][/u]
Не забывайте говорить Спасибо. Не уходите с раздачи!   
Торрент: Зарегистрирован [07 авг 2019, 22:41]
Статус:
Проверен
 
.torrent скачан: 0 раз
Хэш: 97ca8b3657d1d72a5113955c5ccc06d152093ace
Размер: 308.32 МБ (323 300 375 байт)
   Стать Автором раздачи
   
Цитата

Вернуться в Rock

Кто сейчас на конференции

Сейчас эту тему просматривают: нет зарегистрированных пользователей и гости: 1