Маркиза / Marquise (1997) BDRip [H.264/1080p] [MVO]

 Статистика раздачи 
Размер: 14.75 ГБ   |  Зарегистрирован: 04 авг 2019, 13:50   |   .torrent скачан: 3 раз
Сидеров: 3  [ 0 байт/сек ]     Личеров: 0  [ 0 байт/сек ]  
  
Аватара пользователя
Я на сайте
 
Раздал: 6.64 ТБ
Скачал: 597.93 ГБ
Ратио: 11.363
Сообщения: 259496
Стаж: 3 года 6 дней
СообщениеДобавлено: 04 авг 2019, 13:50


Маркиза / Marquise (1997) BDRip [H.264/1080p]

Производство: Франция, Италия, Испания, Швейцария / 3 Emme Cinematografica, Alhena Films, Canal+, Cofimage 5
Жанр: Драма, комедия

Режиссер: Вера Бельмон
Актеры: Софи Марсо, Бернар Жиродо, Ламбер Вильсон, Патрик Тимсит, Тьерри Лермитт, Ремо Джироне, Жорж Вильсон, Марианн Басле, Франк де ла Персонн

Описание:
Фильм рассказывает историю бурной жизни «маркизы» Дю Пак — дамы, имевшей дурную репутацию во время правления короля Людовика ХIV.
Красавица и куртизанка, выросшая в нищете, сумела обольстить огромное количество знатных мужчин и достичь высочайшего положения в обществе. Даже Мольер и Расин, как, впрочем, и сам «Король — Солнце» — Людовик ХIV — не смогли устоять перед ее очарованием.

https://www.imdb.com/title/tt0119623/?ref_=plg_rt_1
Возраст: 16+ (зрителям, достигшим 16 лет)

Продолжительность: 01:55:51
Качество видео: BDRip (1080p)
Перевод: Многоголосый закадровый, профессиональный (Лексикон по заказу "Парадиз")
Субтитры: Английские

Видео: AVC/H.264, 1920x1038, ~17, Mbps
Аудио #1: AC3, 2 ch, 192 Kbps - Русский
Аудио #2: AC3, 2 ch, 192 Kbps - Французский
Код: Выделить всё
Общее
Уникальный идентификатор                 : 253821096300600198293580863110730396629 (0xBEF42A3CAB8B7FAB9AF21C9FEF6AB3D5)
Полное имя                               : D:\NNM\Маркиза\Marquise.1997.BDRip.1080p.mkv
Формат                                   : Matroska
Версия формата                           : Version 4
Размер файла                             : 14,8 Гбайт
Продолжительность                        : 1 ч. 55 м.
Общий поток                              : 18,2 Мбит/сек
Название фильма                          : Rip by msltel
Дата кодирования                         : UTC 2019-08-04 06:15:08
Программа кодирования                    : mkvmerge v8.2.0 ('World of Adventure') 64bit
Библиотека кодирования                   : libebml v1.3.1 + libmatroska v1.4.2

Видео
Идентификатор                            : 1
Формат                                   : AVC
Формат/Информация                        : Advanced Video Codec
Профиль формата                          : [url=http://nnmclub.to/mailto:High@L4.1]High@L4.1[/url]
Настройки формата                        : CABAC / 4 Ref Frames
Параметр CABAC формата                   : Да
Параметр RefFrames формата               : 4 кадра
Идентификатор кодека                     : V_MPEG4/ISO/AVC
Продолжительность                        : 1 ч. 55 м.
Битрейт                                  : 17,8 Мбит/сек
Ширина                                   : 1920 пикселей
Высота                                   : 1038 пикселей
Соотношение сторон                       : 1,85:1
Режим частоты кадров                     : Постоянный
Частота кадров                           : 23,976 (24000/1001) кадра/сек
Цветовое пространство                    : YUV
Субдискретизация насыщенности            : 4:2:0
Битовая глубина                          : 8 бит
Тип развёртки                            : Прогрессивная
Бит/(Пиксели*Кадры)                      : 0.373
Размер потока                            : 14,4 Гбайт (98%)
Библиотека кодирования                   : x264 core 157 r2935 545de2f
Настройки программы                      : cabac=1 / ref=4 / deblock=1:-2:-2 / analyse=0x3:0x113 / me=umh / subme=11 / psy=1 / psy_rd=1.00:0.15 / mixed_ref=1 / me_range=32 / chroma_me=1 / trellis=2 / 8x8dct=1 / cqm=0 / deadzone=21,11 / fast_pskip=0 / chroma_qp_offset=-3 / threads=6 / lookahead_threads=1 / sliced_threads=0 / nr=0 / decimate=1 / interlaced=0 / bluray_compat=0 / constrained_intra=0 / bframes=13 / b_pyramid=2 / b_adapt=2 / b_bias=0 / direct=1 / weightb=1 / open_gop=0 / weightp=2 / keyint=230 / keyint_min=23 / scenecut=40 / intra_refresh=0 / rc_lookahead=40 / rc=crf / mbtree=1 / crf=16.5 / qcomp=0.60 / qpmin=0 / qpmax=69 / qpstep=4 / vbv_maxrate=50000 / vbv_bufsize=62500 / crf_max=0.0 / nal_hrd=none / filler=0 / ip_ratio=1.40 / aq=1:1.00
Язык                                     : French
Default                                  : Да
Forced                                   : Нет

Аудио #1
Идентификатор                            : 2
Формат                                   : AC-3
Формат/Информация                        : Audio Coding 3
Коммерческое название                    : Dolby Digital
Идентификатор кодека                     : A_AC3
Продолжительность                        : 1 ч. 55 м.
Вид битрейта                             : Постоянный
Битрейт                                  : 192 Кбит/сек
Каналы                                   : 2 канала
Channel layout                           : L R
Частота                                  : 48,0 КГц
Частота кадров                           : 31,250 кадров/сек (1536 SPF)
Битовая глубина                          : 16 бит
Метод сжатия                             : С потерями
Размер потока                            : 159 Мбайт (1%)
Заголовок                                : MVO Лексикон по заказу Парадиз
Язык                                     : Russian
ServiceKind/String                       : Complete Main
Default                                  : Да
Forced                                   : Нет

Аудио #2
Идентификатор                            : 3
Формат                                   : AC-3
Формат/Информация                        : Audio Coding 3
Коммерческое название                    : Dolby Digital
Идентификатор кодека                     : A_AC3
Продолжительность                        : 1 ч. 55 м.
Вид битрейта                             : Постоянный
Битрейт                                  : 192 Кбит/сек
Каналы                                   : 2 канала
Channel layout                           : L R
Частота                                  : 48,0 КГц
Частота кадров                           : 31,250 кадров/сек (1536 SPF)
Битовая глубина                          : 16 бит
Метод сжатия                             : С потерями
Размер потока                            : 159 Мбайт (1%)
Заголовок                                : original
Язык                                     : French
ServiceKind/String                       : Complete Main
Default                                  : Нет
Forced                                   : Нет

Текст
Идентификатор                            : 4
Формат                                   : UTF-8
Идентификатор кодека                     : S_TEXT/UTF8
Идентификатор кодека/Информация          : UTF-8 Plain Text
Продолжительность                        : 1 ч. 52 м.
Битрейт                                  : 50 бит/сек
ElementCount                             : 1328
Размер потока                            : 41,4 Кбайт (0%)
Заголовок                                : английские
Язык                                     : English
Default                                  : Нет
Forced                                   : Нет

Меню
00:00:00.000                             : :Chapter 1
00:12:06.475                             : :Chapter 2
00:20:03.660                             : :Chapter 3
00:31:27.385                             : :Chapter 4
00:40:20.376                             : :Chapter 5
00:48:19.646                             : :Chapter 6
01:01:17.382                             : :Chapter 7
01:11:00.589                             : :Chapter 8
01:21:13.910                             : :Chapter 9
01:32:12.193                             : :Chapter 10
01:42:55.711                             : :Chapter 11
01:54:18.518                             : :Chapter 12
01:55:49.609                             : :Chapter 13

Скриншоты:

Время раздачи: 24/7 (до появления первых 3-5 скачавших)
Не забывайте говорить Спасибо. Не уходите с раздачи!   
Торрент: Зарегистрирован [04 авг 2019, 13:50]
Статус:
Проверен
 
.torrent скачан: 3 раз
Хэш: ca5881231eab8af35e56d704b175b41056da83f6
Размер: 14.75 ГБ (15 838 945 444 байт)
   Стать Автором раздачи
   
Цитата
  • Похожие торренты
    Ответы
    Просмотры
    Последнее сообщение

Вернуться в Зарубежное кино (HD Video)

Кто сейчас на конференции

Сейчас эту тему просматривают: нет зарегистрированных пользователей и гости: 1