Художественная гимнастика. Кубок мира 2019. Ташкент (Узбекистан). Финалы в отдельных видах упражнения (2019) WEB-DL [H.264/720p-LQ]

 Статистика раздачи 
Размер: 5.27 ГБ   |  Зарегистрирован: 29 июл 2019, 22:13   |   .torrent скачан: 0 раз
Сидеров: 0  [ 0 байт/сек ]     Личеров: 0  [ 0 байт/сек ]  
  
Аватара пользователя
 
Раздал: 6.64 ТБ
Скачал: 597.93 ГБ
Ратио: 11.363
Сообщения: 264344
Стаж: 3 года 2 месяца 15 дней

Художественная гимнастика. Кубок мира 2019. Ташкент (Узбекистан).
Финалы в отдельных видах упражнения (2019) WEB-DL [H.264/720p-LQ]

Телекомпания: Матч! Арена HD
Жанр: Спорт

Комментаторы: Елена Щербина, Ксения Дудкина

Описание: Воскресенье, 21 апреля 2019 года
3-й Этап Кубка мира по художественной гимнастике сезона 2019. Ташкент (Узбекистан).
Финалы в отдельных видах упражнения:
Личное первенство: обруч; мяч; булавы; лента
Группы: 5 мячей; 3 мяча и 2 булавы
Арена: Гимнастический Дворец спорта (Ташкент, Узбекистан)

Продолжительность: 03:14:56
Качество видео: WEB-DL
Язык озвучки: Русский
Субтитры: отсутствуют

Видео: AVC/H.264, 1280x720 (16:9), ~3738 Kbps
Аудио: AAC, 2 ch, 128 Kbps
Код: Выделить всё
Общее
Уникальный идентификатор                 : 326254741095630257737090797485232477335 (0xF57260A64B24E354448D7369E14BD497)
Полное имя                               : F:\SPORT\Гимнастика\Худож. Гимн\21.04.2019 FIG RG WC 2019.R03.Tashkent(UZB). Apparatus Finals_720p.mkv
Формат                                   : Matroska
Версия формата                           : Version 4
Размер файла                             : 5,27 Гбайт
Продолжительность                        : 3 ч. 14 м.
Общий поток                              : 3868 Кбит/сек
Дата кодирования                         : UTC 2019-07-11 20:09:00
Программа кодирования                    : mkvmerge v35.0.0 ('All The Love In The World') 64-bit
Библиотека кодирования                   : libebml v1.3.9 + libmatroska v1.5.2

Видео
Идентификатор                            : 1
Формат                                   : AVC
Формат/Информация                        : Advanced Video Codec
Профиль формата                          : [url=http://nnmclub.to/mailto:Baseline@L3.1]Baseline@L3.1[/url]
Настройки формата                        : 3 Ref Frames
Параметр CABAC формата                   : Нет
Параметр RefFrames формата               : 3 кадра
Идентификатор кодека                     : V_MPEG4/ISO/AVC
Продолжительность                        : 3 ч. 14 м.
Битрейт                                  : 3738 Кбит/сек
Ширина                                   : 1280 пикселей
Высота                                   : 720 пикселей
Соотношение сторон                       : 16:9
Режим частоты кадров                     : Постоянный
Частота кадров                           : 25,000 кадров/сек
Цветовое пространство                    : YUV
Субдискретизация насыщенности            : 4:2:0
Битовая глубина                          : 8 бит
Тип развёртки                            : Прогрессивная
Бит/(Пиксели*Кадры)                      : 0.162
Размер потока                            : 5,09 Гбайт (97%)
Default                                  : Да
Forced                                   : Нет

Аудио
Идентификатор                            : 2
Формат                                   : AAC LC
Формат/Информация                        : Advanced Audio Codec Low Complexity
Идентификатор кодека                     : A_AAC-2
Продолжительность                        : 3 ч. 14 м.
Битрейт                                  : 128 Кбит/сек
Каналы                                   : 2 канала
Channel layout                           : L R
Частота                                  : 44,1 КГц
Частота кадров                           : 43,066 кадра/сек (1024 SPF)
Метод сжатия                             : С потерями
Размер потока                            : 178 Мбайт (3%)
Язык                                     : Russian
Default                                  : Да
Forced                                   : Нет

Скриншоты:


Время раздачи: 24/7 (до 1 месяца)
Не забывайте говорить Спасибо. Не уходите с раздачи!   
Торрент: Зарегистрирован [29 июл 2019, 22:13]
Статус:
Проверен
 
.torrent скачан: 0 раз
Хэш: ecd5061a2c21916ccab029e5b78380277dfcf805
Размер: 5.27 ГБ (5 655 640 349 байт)
   Стать Автором раздачи
   
Цитата
  • Похожие торренты
    Ответы
    Просмотры
    Последнее сообщение

Вернуться в Бодибилдинг, фитнес, спорт

Кто сейчас на конференции

Сейчас эту тему просматривают: нет зарегистрированных пользователей и гости: 1