Отвергнутый священный зверь / Katsute Kami Datta Kemono-tachi e [2019, TV, 1 из 12] WEBRip 1080p rus

 Статистика раздачи 
Размер: 847.83 МБ   |  Зарегистрирован: 03 июл 2019, 07:00   |   .torrent скачан: 310 раз
Сидеров: 6  [ 0 байт/сек ]     Личеров: 0  [ 0 байт/сек ]  
  
Аватара пользователя
 
Раздал: 6.13 ТБ
Скачал: 195.34 ГБ
Ратио: 32.120
Сообщения: 238478
Стаж: 2 года 4 месяца 27 дней

Отвергнутый священный зверь / Katsute Kami Datta Kemono-tachi e

Тип: TV
Жанр: Триллер, драма, фэнтези, сёнен
Продолжительность: ~00:24:00 серия
Количество серий: 12

Дата выпуска: c 01.07.2019
Производство: Япония, MAPPA
Режиссер: Дзюн Сисидо

Ссылки: World-Art

Описание:
Гражданская война поделила страну на две противоборствующие группы: Север и Юг. Южане, готовые на всё ради победы, пустили в ход запретную магию, превратив своих солдат в монстров. Те полностью утратили человеческий облик, получив взамен нечеловеческую силу, и в итоге отвоевали свои земли.
Война закончена, однако это не принесло в страну мир и спокойствие. Магия, которая изменила тела людей, не имела обратного действия, более того, они стали постепенно утрачивать человеческое сознание, так что солдаты, превращённые в монстров, оказались не просто никому не нужны, а опасны. Народ, помня своих спасителей, всё же стал их бояться, избегать, а потом и вовсе уничтожать.

Язык озвучки: Русский (AkariGroup)
Субтитры: Отсутствуют

Качество видео: WEBRip
Видео: AVC/H.264, 1920x1080 (16:9), 23.976 fps, ~4839 Kbps
Аудио: AAC, 48 KHz, 165 kbps
Скриншоты:
Код: Выделить всё
General
Unique ID                   : 199988306936041202118059157068344178759 (0x967458CD7DAD798D3FC592C2A7F3B847)
Complete name               : H:\Akari Group\Katsute Kami Datta Kemono-tachi e\Katsute.Kami.Datta.Kemono.tachi.e.TV1.1080p\Katsute.Kami.Datta.Kemono.tachi.e.S1E1.1080p.AkariGroup.mkv
Format                      : Matroska
Format version              : Version 4 / Version 2
File size                   : 848 MiB
Duration                    : 23mn 40s
Overall bit rate            : 5 008 Kbps
Encoded date                : UTC 2019-07-03 03:35:38
Writing application         : mkvmerge v25.0.0 ('Prog Noir') 64-bit
Writing library             : libebml v1.3.6 + libmatroska v1.4.9
Attachments                 : OpenSans-Semibold.ttf

Video
ID                          : 1
Format                      : AVC
Format/Info                 : Advanced Video Codec
Format profile              : High@L4
Format settings, CABAC      : Yes
Format settings, ReFrames   : 4 frames
Codec ID                    : V_MPEG4/ISO/AVC
Duration                    : 23mn 40s
Bit rate                    : 4 839 Kbps
Width                       : 1 920 pixels
Height                      : 1 080 pixels
Display aspect ratio        : 16:9
Frame rate mode             : Constant
Frame rate                  : 23.976 (24000/1001) fps
Color space                 : YUV
Chroma subsampling          : 4:2:0
Bit depth                   : 8 bits
Scan type                   : Progressive
Bits/(Pixel*Frame)          : 0.097
Stream size                 : 819 MiB (97%)
Writing library             : x264 core 142
Encoding settings           : cabac=1 / ref=4 / deblock=1:1:1 / analyse=0x3:0x113 / me=umh / subme=8 / psy=1 / psy_rd=0.40:0.00 / mixed_ref=1 / me_range=16 / chroma_me=1 / trellis=1 / 8x8dct=1 / cqm=0 / deadzone=21,11 / fast_pskip=1 / chroma_qp_offset=-2 / threads=12 / lookahead_threads=2 / sliced_threads=0 / nr=0 / decimate=1 / interlaced=0 / bluray_compat=0 / constrained_intra=0 / bframes=3 / b_pyramid=2 / b_adapt=2 / b_bias=0 / direct=3 / weightb=1 / open_gop=0 / weightp=2 / keyint=96 / keyint_min=48 / scenecut=40 / intra_refresh=0 / rc_lookahead=48 / rc=crf / mbtree=1 / crf=15.0 / qcomp=0.60 / qpmin=0 / qpmax=69 / qpstep=4 / vbv_maxrate=8000 / vbv_bufsize=12000 / crf_max=0.0 / nal_hrd=none / filler=0 / ip_ratio=1.40 / aq=1:0.60
Default                     : Yes
Forced                      : No

Audio
ID                          : 2
Format                      : AAC
Format/Info                 : Advanced Audio Codec
Format profile              : LC
Codec ID                    : A_AAC
Duration                    : 23mn 40s
Bit rate                    : 165 Kbps
Channel(s)                  : 2 channels
Channel positions           : Front: L R
Sampling rate               : 48.0 KHz
Frame rate                  : 46.875 fps (1024 spf)
Compression mode            : Lossy
Delay relative to video     : -83ms
Stream size                 : 28.0 MiB (3%)
Default                     : Yes
Forced                      : No
Время раздачи: 24/7 (до появления первых 3-5 скачавших)
Не забывайте говорить Спасибо. Не уходите с раздачи!   
Торрент: Зарегистрирован [03 июл 2019, 07:00]
Статус:
Проверен
 
.torrent скачан: 310 раз
Хэш: 1b1c7cacff04dca93c300e8b38e988d56e93e7ad
Размер: 847.83 МБ (889 015 877 байт)
   Стать Автором раздачи
   
Цитата
  • Похожие торренты
    Ответы
    Просмотры
    Последнее сообщение

Вернуться в Аниме, Японские мультфильмы

Кто сейчас на конференции

Сейчас эту тему просматривают: нет зарегистрированных пользователей и гости: 1