Человек будущего / Future Man [S01] (2017) WEBRip | L

 Статистика раздачи 
Размер: 4.74 ГБ   |  Зарегистрирован: 16 ноя 2017, 17:42   |   .torrent скачан: 15163 раз
Сидеров: 12  [ 0 байт/сек ]     Личеров: 1  [ 0 байт/сек ]  
  
Аватара пользователя
Я на сайте
 
Раздал: 6.19 ТБ
Скачал: 240.93 ГБ
Ратио: 26.292
Сообщения: 239717
Стаж: 2 года 5 месяцев 3 дня

Страна: США
Производство: Sony Pictures Television, Point Grey Pictures, Matt Tolmach Productions, Turkeyfoot Productions
Год выпуска: 2017
Сезон: 1
Жанр: фантастика, комедия
Продолжительность: 13х ~00:35:00

Режиссеры: Ниша Ганатра, Эван Голдберг, Сет Роген
Авторы сценария: Кайл Хантер, Эриель Шаффир

В ролях: Джош Хатчерсон, Дерек Уилсон, Эд Бегли мл., Дрю Джеймс, Мэри Манофски, Роберт Крэйгхед, Джейсон Скотт Дженкинс, Кевин Калибер

Описание: Главный герой всё ещё живёт с родителями и подрабатывает в исследовательском центре «Девлин», специализирующемся на сексуальных дисфункциях. Из-за болезненного периода полового созревания у Джоша низкая самооценка и плохо развиты коммуникативные навыки, поэтому юноша часто теряется в общении с женщинами. Единственное, в чём преуспевает герой, — это видеоигра Cybergeddon, действие которой происходит в мрачном будущем, где его персонаж, Человек из будущего, занимает высокую социальную позицию. Когда Джош проходит последний уровень, ему наносят визит персонажи Cybergeddon, утверждающие, что игра была всего лишь тренингом и что теперь герой избран для того, чтобы совершить путешествие в прошлое и помочь им спасти мир. Готов ли Джош к этому..? Конечно, нет...



Перевод: Любительский (многоголосый, закадровый) | КОЛДФИЛЬМ
Субтитры: нет

Качество: WEBRip
Формат: АVI
Видео: 720x400 (16:9), 23.976 fps, XviD ~1 500 kbps avg
Аудио: 44.1 kHz, MPEG Layer 3, 2 ch, ~192 kbps avg

Дата премьеры (мир): 14 ноября 2017

Код: Выделить всё
General
Complete name : Future Man S01Future Man S01E01.avi
Format : AVI
Format/Info : Audio Video Interleave
File size : 377 MiB
Duration : 30mn 54s
Overall bit rate : 1 708 Kbps
Writing application : Lavf57.40.101

Video
ID : 1
Format : MPEG-4 Visual
Format settings, BVOP : No
Format settings, QPel : No
Format settings, GMC : No warppoints
Format settings, Matrix : Default (H.263)
Codec ID : FMP4
Duration : 30mn 53s
Bit rate : 1 485 Kbps
Width : 720 pixels
Height : 400 pixels
Display aspect ratio : 16:9
Frame rate mode : Variable
Frame rate : 119.880 (24/30) fps
Minimum frame rate : 23.976 fps
Maximum frame rate : 29.970 fps
Color space : YUV
Chroma subsampling : 4:2:0
Bit depth : 8 bits
Scan type : Progressive
Compression mode : Lossy
Bits/(Pixel*Frame) : 0.043
Stream size : 328 MiB (87%)
Writing library : Lavc57.48.101

Audio
ID : 0
Format : MPEG Audio
Format version : Version 1
Format profile : Layer 3
Mode : Joint stereo
Mode extension : MS Stereo
Codec ID : 55
Codec ID/Hint : MP3
Duration : 30mn 54s
Bit rate mode : Constant
Bit rate : 192 Kbps
Channel(s) : 2 channels
Sampling rate : 44.1 KHz
Compression mode : Lossy
Stream size : 42.4 MiB (11%)
Alignment : Aligned on interleaves
Interleave, duration : 8 ms (1.00 video frame)

Не забывайте говорить Спасибо. Не уходите с раздачи!   
Торрент: Зарегистрирован [16 ноя 2017, 17:42]
Статус:
Проверен
 
.torrent скачан: 15163 раз
Хэш: b4f81fc40aa138f7b13f749cdfaa9f230fcd3241
Размер: 4.74 ГБ (5 091 792 666 байт)
   Стать Автором раздачи
   
Цитата
  • Похожие торренты
    Ответы
    Просмотры
    Последнее сообщение

Вернуться в Человек будущего / Future Man

Кто сейчас на конференции

Сейчас эту тему просматривают: нет зарегистрированных пользователей и гости: 1