Мама и папа / Mom and Dad (2017) BDRip 720p от k.e.n & MegaPeer | L, L1

 Статистика раздачи 
Размер: 3.1 ГБ   |  Зарегистрирован: 11 июл 2019, 17:46   |   .torrent скачан: 369 раз
Сидеров: 76  [ 0 байт/сек ]     Личеров: 6  [ 0 байт/сек ]  
  
Аватара пользователя
Я на сайте
 
Раздал: 5.91 ТБ
Скачал: 193.57 ГБ
Ратио: 31.262
Сообщения: 233700
Стаж: 2 года 3 месяца 27 дней

Информация о фильме
Название: Мама и папа
Оригинальное название: Mom and Dad
Год выхода: 2017
Жанр: Ужасы, триллер, комедия
Режиссер: Брайан Тейлор
В ролях: Николас Кейдж, Сэлма Блэр, Лэнс Хенриксен, Энн Уинтерс, Рэйчел Мелвин, Джозеф Д. Рейтман, Лорена Диас, Оливия Крочиккия, Закари Артур, Саманта Лемоул

О фильме: Со стороны семья Райан кажется идеальной — муж хорошо зарабатывает, красавица-жена, двое детей. Но проблемы есть в любой семье. Дочь-старшеклассница перестала общаться с матерью и таскает у неё деньги из кошелька. Младший брат постоянно задирает сестру, родители тоже с трудом находят общий язык. Внезапно по телевизору начинают передавать странный сигнал, и все услышавшие его родители нападают на собственных детей. Самое время для супругов Райан начать работать в команде и выяснить отношения всем семейством.



Страна: США
Студия: Armory Films
Продолжительность: 01:23:05
Перевод: Любительский (многоголосый закадровый), любительский (одноголосый закадровый)

Файл
Качество: BDRip 720p
Видео: AVC, 1280x534 (2.40:1), 23.976 fps, 4515 kb/s (0.276 bit/pixel)
Аудио #1: AC3, 48 kHz, 2 ch, 192 kbps (Русский - MVO @MUZOBOZ@)
Аудио #2: AC3, 48 kHz, 2 ch, 192 kbps (Русский - VO ХиХиДок)
Аудио #3: AC3, 48 kHz, 6 ch, 448 kbps (Английский - оригинал)
Субтитры: Английские

Релиз от: &

Complete name: D:Мама и папа.2017 (Н.Кейдж, С.Блэр).mkv
Format: Matroska
Format version: Version 2
File size: 3.10 GiB
Duration: 1 h 23 min
Overall bit rate: 5 338 kb/s
Encoded date: UTC 2019-07-11 13:47:17
Writing application: mkvmerge v5.3.0 ('I could have danced') built on Feb 9 2012 10:38:07
Writing library: libebml v1.2.3 + libmatroska v1.3.0
Attachments: poster.jpg

Video
ID: 1
Format: AVC
Format/Info: Advanced Video Codec
Format profile: High@L4.1
Format settings: CABAC / 12 Ref Frames
Format settings, CABAC: Yes
Format settings, ReFrames: 12 frames
Codec ID: V_MPEG4/ISO/AVC
Duration: 1 h 23 min
Bit rate: 4 515 kb/s
Width: 1 280 pixels
Height: 534 pixels
Display aspect ratio: 2.40:1
Frame rate mode: Constant
Frame rate: 23.976 (24000/1001) FPS
Color space: YUV
Chroma subsampling: 4:2:0
Bit depth: 8 bits
Scan type: Progressive
Bits/(Pixel*Frame): 0.276
Stream size: 2.55 GiB (82%)
Writing library: x264 core 146 r2538 121396c
Encoding settings: cabac=1 / ref=12 / deblock=1:-3:-3 / analyse=0x3:0x133 / me=umh / subme=11 / psy=1 / psy_rd=1.00:0.10 / mixed_ref=1 / me_range=32 / chroma_me=1 / trellis=2 / 8x8dct=1 / cqm=0 / deadzone=21,11 / fast_pskip=0 / chroma_qp_offset=-3 / threads=12 / lookahead_threads=3 / sliced_threads=0 / nr=0 / decimate=0 / interlaced=0 / bluray_compat=0 / constrained_intra=0 / bframes=12 / b_pyramid=2 / b_adapt=2 / b_bias=0 / direct=3 / weightb=1 / open_gop=0 / weightp=2 / keyint=240 / keyint_min=23 / scenecut=40 / intra_refresh=0 / rc=2pass / mbtree=0 / bitrate=4515 / ratetol=1.0 / qcomp=0.60 / qpmin=0 / qpmax=69 / qpstep=4 / cplxblur=20.0 / qblur=0.5 / ip_ratio=1.40 / pb_ratio=1.30 / aq=1:0.70
Language: English
Default: Yes
Forced: No

Audio #1
ID: 2
Format: AC-3
Format/Info: Audio Coding 3
Commercial name: Dolby Digital
Codec ID: A_AC3
Duration: 1 h 23 min
Bit rate mode: Constant
Bit rate: 192 kb/s
Channel(s): 2 channels
Channel layout: L R
Sampling rate: 48.0 kHz
Frame rate: 31.250 FPS (1536 SPF)
Bit depth: 16 bits
Compression mode: Lossy
Stream size: 114 MiB (4%)
Title: MVO @MUZOBOZ@
Language: Russian
Service kind: Complete Main
Default: Yes
Forced: No

Audio #2
ID: 3
Format: AC-3
Format/Info: Audio Coding 3
Commercial name: Dolby Digital
Codec ID: A_AC3
Duration: 1 h 23 min
Bit rate mode: Constant
Bit rate: 192 kb/s
Channel(s): 2 channels
Channel layout: L R
Sampling rate: 48.0 kHz
Frame rate: 31.250 FPS (1536 SPF)
Bit depth: 16 bits
Compression mode: Lossy
Stream size: 114 MiB (4%)
Title: VO ХиХиДок
Language: Russian
Service kind: Complete Main
Default: No
Forced: No

Audio #3
ID: 4
Format: AC-3
Format/Info: Audio Coding 3
Commercial name: Dolby Digital
Codec ID: A_AC3
Duration: 1 h 23 min
Bit rate mode: Constant
Bit rate: 448 kb/s
Channel(s): 6 channels
Channel layout: L R C LFE Ls Rs
Sampling rate: 48.0 kHz
Frame rate: 31.250 FPS (1536 SPF)
Bit depth: 16 bits
Compression mode: Lossy
Stream size: 266 MiB (8%)
Title: Original
Language: English
Service kind: Complete Main
Default: No
Forced: No

Text #1
ID: 5
Format: UTF-8
Codec ID: S_TEXT/UTF8
Codec ID/Info: UTF-8 Plain Text
Title: full
Language: English
Default: No
Forced: No

Text #2
ID: 6
Format: UTF-8
Codec ID: S_TEXT/UTF8
Codec ID/Info: UTF-8 Plain Text
Title: SDH
Language: English
Default: No
Forced: No

Menu
00:00:00.000: :Chapter 01
00:05:28.453: :Chapter 02
00:09:51.716: :Chapter 03
00:15:20.670: :Chapter 04
00:22:28.472: :Chapter 05
00:27:57.551: :Chapter 06
00:30:54.269: :Chapter 07
00:35:19.117: :Chapter 08
00:43:08.711: :Chapter 09
00:49:54.366: :Chapter 10
00:53:17.111: :Chapter 11
00:58:29.881: :Chapter 12
01:04:59.896: :Chapter 13
01:10:55.334: :Chapter 14
01:15:05.751: :Chapter 15
01:19:18.420: :Chapter 16

Не забывайте говорить Спасибо. Не уходите с раздачи!   
Торрент: Зарегистрирован [11 июл 2019, 17:46]
Статус:
Проверен
 
.torrent скачан: 369 раз
Хэш: 33cfa8e84b287cd3c1c3a67f48353e35db180908
Размер: 3.1 ГБ (3 326 944 722 байт)
   Стать Автором раздачи
   
Цитата

Вернуться в Зарубежное кино (HD Video)

Кто сейчас на конференции

Сейчас эту тему просматривают: нет зарегистрированных пользователей и гости: 1