The Kills - No Wow (2005) [FLAC|Lossless|tracks + .cue] <Alternative Rock, Indie Rock>

 Статистика раздачи 
Размер: 273.56 МБ   |  Зарегистрирован: 11 июл 2019, 20:08   |   .torrent скачан: 0 раз
Сидеров: 4  [ 0 байт/сек ]     Личеров: 0  [ 0 байт/сек ]  
  
Аватара пользователя
Я на сайте
 
Раздал: 6.46 ТБ
Скачал: 533.03 ГБ
Ратио: 12.405
Сообщения: 244669
Стаж: 2 года 6 месяцев 29 дней

The Kills - No Wow (2005)

Жанр: Alternative Rock, Indie Rock
Издание: RCA - 06076 83266 2
Продолжительность: 00:40:07

Кодек: FLAC
Битрейт: Lossless
Тип рипа: tracks + .cue

Треклист:
01. No Wow/Telephone Radio Germany (4:48)
02. Love Is A Deserter (3:49)
03. Dead Road 7 (3:23)
04. The Good Ones (3:30)
05. I Hate The Way You Love (3:38)
06. I Hate The Way You Love Pt. 2 (1:46)
07. At The Back Of The Shell (2:28)
08. Sweet Cloud (5:06)
09. Rodeo Town (4:24)
10. Murdermile (4:25)
11. Ticket Man (2:50)
Код: Выделить всё
Exact Audio Copy V1.0 beta 3 from 29. August 2011

EAC extraction logfile from 5. February 2012, 13:12

The Kills / No Wow [Rough Trade/RCA]

Used drive  : PHILIPS DVD+-RW DVD8801   Adapter: 1  ID: 0

Read mode               : Secure
Utilize accurate stream : Yes
Defeat audio cache      : Yes
Make use of C2 pointers : No

Read offset correction                      : 618
Overread into Lead-In and Lead-Out          : No
Fill up missing offset samples with silence : Yes
Delete leading and trailing silent blocks   : No
Null samples used in CRC calculations       : Yes
Used interface                              : Native Win32 interface for Win NT & 2000
Gap handling                                : Appended to previous track

Used output format              : User Defined Encoder
Selected bitrate                : 1024 kBit/s
Quality                         : High
Add ID3 tag                     : No
Command line compressor         : C:\Program Files\Exact Audio Copy\FLAC\FLAC.EXE
Additional command line options : -8 -V -T "ARTIST=%artist%" -T "TITLE=%title%" -T "ALBUM=%albumtitle%" -T "DATE=%year%" -T "TRACKNUMBER=%tracknr%" -T "GENRE=%genre%" -T "COMMENT=%comment%" -T "BAND=%albuminterpret%" -T "ALBUMARTIST=%albuminterpret%" -T "COMPOSER=%composer%" %haslyrics%--tag-from-file=LYRICS="%lyricsfile%"%haslyrics% -T "DISCNUMBER=%cdnumber%" -T "TOTALDISCS=%totalcds%" -T "TOTALTRACKS=%numtracks%" %hascover%--picture="%coverfile%"%hascover% %source% -o %dest%

TOC of the extracted CD

     Track |   Start  |  Length  | Start sector | End sector
    ---------------------------------------------------------
        1  |  0:00.00 |  4:47.53 |         0    |    21577
        2  |  4:47.53 |  3:48.51 |     21578    |    38728
        3  |  8:36.29 |  3:23.14 |     38729    |    53967
        4  | 11:59.43 |  3:29.50 |     53968    |    69692
        5  | 15:29.18 |  3:37.71 |     69693    |    86038
        6  | 19:07.14 |  1:46.00 |     86039    |    93988
        7  | 20:53.14 |  2:27.60 |     93989    |   105073
        8  | 23:20.74 |  5:06.13 |    105074    |   128036
        9  | 28:27.12 |  4:24.17 |    128037    |   147853
       10  | 32:51.29 |  4:25.23 |    147854    |   167751
       11  | 37:16.52 |  2:49.61 |    167752    |   180487

Track  1

     Filename C:\Kills - No Wow [Rough Trade-RCA]\01 No Wow-Telephone Radio Germany.wav

     Pre-gap length  0:00:02.00

     Peak level 91.6 %
     Extraction speed 1.8 X
     Track quality 100.0 %
     Test CRC D1F20268
     Copy CRC D1F20268
     Accurately ripped (confidence 3)  [17B064D7]  (AR v2)
     Copy OK

Track  2

     Filename C:\Kills - No Wow [Rough Trade-RCA]\02 Love Is A Deserter.wav

     Pre-gap length  0:00:49.06

     Peak level 98.8 %
     Extraction speed 2.0 X
     Track quality 100.0 %
     Test CRC 45551F07
     Copy CRC 45551F07
     Cannot be verified as accurate (confidence 42)  [D63EF5D6], AccurateRip returned [AEB1E19D]  (AR v2)
     Copy OK

Track  3

     Filename C:\Kills - No Wow [Rough Trade-RCA]\03 Dead Road 7.wav

     Pre-gap length  0:00:00.51

     Peak level 91.6 %
     Extraction speed 1.8 X
     Track quality 99.9 %
     Test CRC D30F4D6C
     Copy CRC D30F4D6C
     Accurately ripped (confidence 3)  [87C5BD3E]  (AR v2)
     Copy OK

Track  4

     Filename C:\Kills - No Wow [Rough Trade-RCA]\04 The Good Ones.wav

     Peak level 91.6 %
     Extraction speed 2.2 X
     Track quality 100.0 %
     Test CRC C2B26868
     Copy CRC C2B26868
     Accurately ripped (confidence 2)  [6A539454]  (AR v2)
     Copy OK

Track  5

     Filename C:\Kills - No Wow [Rough Trade-RCA]\05 I Hate The Way You Love.wav

     Peak level 91.6 %
     Extraction speed 2.4 X
     Track quality 100.0 %
     Test CRC 67FEE2C0
     Copy CRC 67FEE2C0
     Accurately ripped (confidence 3)  [5A94F9B4]  (AR v2)
     Copy OK

Track  6

     Filename C:\Kills - No Wow [Rough Trade-RCA]\06 I Hate The Way You Love Pt. 2.wav

     Peak level 91.6 %
     Extraction speed 2.2 X
     Track quality 100.0 %
     Test CRC 31D317FD
     Copy CRC 31D317FD
     Accurately ripped (confidence 3)  [55CB259E]  (AR v2)
     Copy OK

Track  7

     Filename C:\Kills - No Wow [Rough Trade-RCA]\07 At The Back Of The Shell.wav

     Peak level 91.7 %
     Extraction speed 2.4 X
     Track quality 100.0 %
     Test CRC 600C7099
     Copy CRC 600C7099
     Accurately ripped (confidence 3)  [D2EBC2CD]  (AR v2)
     Copy OK

Track  8

     Filename C:\Kills - No Wow [Rough Trade-RCA]\08 Sweet Cloud.wav

     Peak level 91.6 %
     Extraction speed 2.8 X
     Track quality 100.0 %
     Test CRC D55FA168
     Copy CRC D55FA168
     Accurately ripped (confidence 3)  [2C7E8E48]  (AR v2)
     Copy OK

Track  9

     Filename C:\Kills - No Wow [Rough Trade-RCA]\09 Rodeo Town.wav

     Pre-gap length  0:00:01.61

     Peak level 91.6 %
     Extraction speed 2.9 X
     Track quality 100.0 %
     Test CRC 386E0FAE
     Copy CRC 386E0FAE
     Accurately ripped (confidence 3)  [E4341826]  (AR v2)
     Copy OK

Track 10

     Filename C:\Kills - No Wow [Rough Trade-RCA]\10 Murdermile.wav

     Pre-gap length  0:00:00.59

     Peak level 91.6 %
     Extraction speed 3.0 X
     Track quality 100.0 %
     Test CRC D6D49A58
     Copy CRC D6D49A58
     Accurately ripped (confidence 3)  [88950136]  (AR v2)
     Copy OK

Track 11

     Filename C:\Kills - No Wow [Rough Trade-RCA]\11 Ticket Man.wav

     Pre-gap length  0:00:03.51

     Peak level 91.6 %
     Extraction speed 2.9 X
     Track quality 100.0 %
     Test CRC 30FA02BE
     Copy CRC 30FA02BE
     Accurately ripped (confidence 3)  [55948A9D]  (AR v2)
     Copy OK

10 track(s) accurately ripped
 1 track(s) could not be verified as accurate

Some tracks could not be verified as accurate

No errors occurred

End of status report

==== Log checksum 78CD60C9D7A0CB7E6010B91165A415055BF479343318960B4A1C6E34078778AD ====

#7
Код: Выделить всё
[b]Поглощение/вытеснение [/b]
[b]Только с согласия релизера[/b]
[b][u][i]Pashketan[/b][/i][/u]
Не забывайте говорить Спасибо. Не уходите с раздачи!   
Торрент: Зарегистрирован [11 июл 2019, 20:08]
Статус:
Проверен
 
.torrent скачан: 0 раз
Хэш: 5e56d95b3b7da96b26d541175fd620e6c29bc5ef
Размер: 273.56 МБ (286 843 508 байт)
   Стать Автором раздачи
   
Цитата
  • Похожие торренты
    Ответы
    Просмотры
    Последнее сообщение

Вернуться в Rock

Кто сейчас на конференции

Сейчас эту тему просматривают: нет зарегистрированных пользователей и гости: 1