The Kills - Midnight Boom (2008) [FLAC|Lossless|tracks + .cue] <Alternative Rock, Garage Rock, Lo-Fi>

 Статистика раздачи 
Размер: 252.76 МБ   |  Зарегистрирован: 11 июл 2019, 20:02   |   .torrent скачан: 0 раз
Сидеров: 4  [ 0 байт/сек ]     Личеров: 0  [ 0 байт/сек ]  
  
Аватара пользователя
Я на сайте
 
Раздал: 5.91 ТБ
Скачал: 193.57 ГБ
Ратио: 31.262
Сообщения: 233700
Стаж: 2 года 3 месяца 27 дней

The Kills - Midnight Boom (2008)

Жанр: Alternative Rock, Garage Rock, Lo-Fi, Indie Rock
Издание: Red Meat Heart - DNO 164
Продолжительность: 00:34:03

Кодек: FLAC
Битрейт: Lossless
Тип рипа: tracks + .cue

Треклист:
01. U.R.A. Fever (2:16)
02. Cheap and Cheerful (2:27)
03. Tape Song (3:36)
04. Getting Down (2:56)
05. Last Day of Magic (3:21)
06. Hook and Line (2:03)
07. Black Balloon (3:47)
08. M.E.X.I.C.O. (1:37)
09. Sour Cherry (3:07)
10. Alphabet Pony (1:45)
11. What New York Used to Be (3:16)
12. Goodnight Bad Morning (3:52)
Код: Выделить всё
Exact Audio Copy V1.0 beta 3 from 29. August 2011

EAC extraction logfile from 22. February 2017, 22:46

The Kills / Midnight Boom [Domino Recording Co]

Used drive  : HL-DT-STCD-RW GCE-8525B   Adapter: 3  ID: 1

Read mode               : Secure
Utilize accurate stream : Yes
Defeat audio cache      : Yes
Make use of C2 pointers : No

Read offset correction                      : 6
Overread into Lead-In and Lead-Out          : No
Fill up missing offset samples with silence : Yes
Delete leading and trailing silent blocks   : No
Null samples used in CRC calculations       : Yes
Used interface                              : Native Win32 interface for Win NT & 2000
Gap handling                                : Appended to previous track

Used output format              : User Defined Encoder
Selected bitrate                : 1024 kBit/s
Quality                         : High
Add ID3 tag                     : No
Command line compressor         : C:\Program Files\Exact Audio Copy\FLAC\FLAC.EXE
Additional command line options : -8 -V -T "ARTIST=%artist%" -T "TITLE=%title%" -T "ALBUM=%albumtitle%" -T "DATE=%year%" -T "TRACKNUMBER=%tracknr%" -T "GENRE=%genre%" -T "COMMENT=%comment%" %source% -o %dest%

TOC of the extracted CD

     Track |   Start  |  Length  | Start sector | End sector
    ---------------------------------------------------------
        1  |  0:00.00 |  2:16.19 |         0    |    10218
        2  |  2:16.19 |  2:26.51 |     10219    |    21219
        3  |  4:42.70 |  3:35.52 |     21220    |    37396
        4  |  8:18.47 |  2:55.49 |     37397    |    50570
        5  | 11:14.21 |  3:21.29 |     50571    |    65674
        6  | 14:35.50 |  2:03.15 |     65675    |    74914
        7  | 16:38.65 |  3:46.65 |     74915    |    91929
        8  | 20:25.55 |  1:37.16 |     91930    |    99220
        9  | 22:02.71 |  3:06.71 |     99221    |   113241
       10  | 25:09.67 |  1:45.12 |    113242    |   121128
       11  | 26:55.04 |  3:15.54 |    121129    |   135807
       12  | 30:10.58 |  3:51.70 |    135808    |   153202

Track  1

     Filename C:\Kills - Midnight Boom [Domino Recording Co.]\01 - U.R.A. Fever.wav

     Pre-gap length  0:00:02.00

     Peak level 98.8 %
     Extraction speed 3.9 X
     Track quality 100.0 %
     Test CRC 98E56E78
     Copy CRC 98E56E78
     Accurately ripped (confidence 21)  [DFEAD339]  (AR v2)
     Copy OK

Track  2

     Filename C:\Kills - Midnight Boom [Domino Recording Co.]\02 - Cheap and Cheerful.wav

     Peak level 98.8 %
     Extraction speed 4.3 X
     Track quality 100.0 %
     Test CRC 8053F209
     Copy CRC 8053F209
     Accurately ripped (confidence 21)  [2FA58499]  (AR v2)
     Copy OK

Track  3

     Filename C:\Kills - Midnight Boom [Domino Recording Co.]\03 - Tape Song.wav

     Peak level 98.8 %
     Extraction speed 4.9 X
     Track quality 100.0 %
     Test CRC BC00F1E6
     Copy CRC BC00F1E6
     Accurately ripped (confidence 21)  [9B4AA25F]  (AR v2)
     Copy OK

Track  4

     Filename C:\Kills - Midnight Boom [Domino Recording Co.]\04 - Getting Down.wav

     Peak level 98.8 %
     Extraction speed 5.1 X
     Track quality 100.0 %
     Test CRC 57B79419
     Copy CRC 57B79419
     Accurately ripped (confidence 21)  [3CF4DFD3]  (AR v2)
     Copy OK

Track  5

     Filename C:\Kills - Midnight Boom [Domino Recording Co.]\05 - Last Day of Magic.wav

     Peak level 98.8 %
     Extraction speed 5.5 X
     Track quality 100.0 %
     Test CRC AE64B815
     Copy CRC AE64B815
     Accurately ripped (confidence 21)  [907042BC]  (AR v2)
     Copy OK

Track  6

     Filename C:\Kills - Midnight Boom [Domino Recording Co.]\06 - Hook and Line.wav

     Peak level 98.8 %
     Extraction speed 5.2 X
     Track quality 100.0 %
     Test CRC 63E1BB6C
     Copy CRC 63E1BB6C
     Accurately ripped (confidence 21)  [9D4F23EF]  (AR v2)
     Copy OK

Track  7

     Filename C:\Kills - Midnight Boom [Domino Recording Co.]\07 - Black Balloon.wav

     Peak level 98.8 %
     Extraction speed 6.1 X
     Track quality 100.0 %
     Test CRC 5B83D567
     Copy CRC 5B83D567
     Accurately ripped (confidence 21)  [E4A8D0C6]  (AR v2)
     Copy OK

Track  8

     Filename C:\Kills - Midnight Boom [Domino Recording Co.]\08 - M.E.X.I.C.O..wav

     Peak level 98.8 %
     Extraction speed 5.4 X
     Track quality 100.0 %
     Test CRC C6D43DD0
     Copy CRC C6D43DD0
     Accurately ripped (confidence 21)  [B14C8474]  (AR v2)
     Copy OK

Track  9

     Filename C:\Kills - Midnight Boom [Domino Recording Co.]\09 - Sour Cherry.wav

     Peak level 98.8 %
     Extraction speed 6.4 X
     Track quality 100.0 %
     Test CRC 31E9BA06
     Copy CRC 31E9BA06
     Accurately ripped (confidence 21)  [3E392CB0]  (AR v2)
     Copy OK

Track 10

     Filename C:\Kills - Midnight Boom [Domino Recording Co.]\10 - Alphabet Pony.wav

     Peak level 98.8 %
     Extraction speed 5.9 X
     Track quality 100.0 %
     Test CRC CCBBC23D
     Copy CRC CCBBC23D
     Accurately ripped (confidence 21)  [5E5C87CC]  (AR v2)
     Copy OK

Track 11

     Filename C:\Kills - Midnight Boom [Domino Recording Co.]\11 - What New York Used to Be.wav

     Peak level 98.8 %
     Extraction speed 6.8 X
     Track quality 100.0 %
     Test CRC E760393A
     Copy CRC E760393A
     Accurately ripped (confidence 21)  [697FEB1C]  (AR v2)
     Copy OK

Track 12

     Filename C:\Kills - Midnight Boom [Domino Recording Co.]\12 - Goodnight Bad Morning.wav

     Peak level 95.5 %
     Extraction speed 7.3 X
     Track quality 100.0 %
     Test CRC 2B5F8315
     Copy CRC 2B5F8315
     Accurately ripped (confidence 19)  [FBE650E1]  (AR v2)
     Copy OK

All tracks accurately ripped

No errors occurred

End of status report

==== Log checksum 1B5399EB7E31E18723E4A187B08103DD8DE0ECC06692DF77356248A4F8BCD21E ====

#7
Код: Выделить всё
[b]Поглощение/вытеснение [/b]
[b]Только с согласия релизера[/b]
[b][u][i]Pashketan[/b][/i][/u]
Не забывайте говорить Спасибо. Не уходите с раздачи!   
Торрент: Зарегистрирован [11 июл 2019, 20:02]
Статус:
Проверен
 
.torrent скачан: 0 раз
Хэш: 19ff0ce0bc2b41d6a08a61661902033b31572acb
Размер: 252.76 МБ (265 038 490 байт)
   Стать Автором раздачи
   
Цитата
  • Похожие торренты
    Ответы
    Просмотры
    Последнее сообщение

Вернуться в Rock

Кто сейчас на конференции

Сейчас эту тему просматривают: нет зарегистрированных пользователей и гости: 1