Выдра по имени Тарка / Tarka the Otter (1978) BDRip 1080p от HDReactor | P1

 Статистика раздачи 
Размер: 7.76 ГБ   |  Зарегистрирован: 11 июл 2019, 18:37   |   .torrent скачан: 2651 раз
Сидеров: 242  [ 0 байт/сек ]     Личеров: 87  [ 0 байт/сек ]  
  
Аватара пользователя
Я на сайте
 
Раздал: 5.91 ТБ
Скачал: 193.57 ГБ
Ратио: 31.262
Сообщения: 233700
Стаж: 2 года 3 месяца 27 дней

Информация о фильме
Название: Выдра по имени Тарка
Оригинальное название: Tarka the Otter
Год выпуска: 1978
Жанр: Семейный, драма, приключения
Выпущено: Великобритания
Режиссер: Дэвид Кобхэм
В ролях: Питер Устинов, Питер Беннетт, Эдвард Андердаун, Бренда Кавендиш, Джон Лисон
О фильме: Замечательный фильм о живой природе рассказывает о жизни маленького любопытного зверька по имени Тарка. Тарка родился на берегах реки Торридж в Англии и с самого рождения своей любознательностью доставлял много хлопот и забот как своим родителям, так и другим обитателям этой местности. Фильм снят по книге известного писателя Генри Уильямсона и уже не первое поколение английских детишек перечитывает эту замечательную историю, а теперь и Вы сможете увидеть экранизированную версию. Жизнь и приключения Тарки не оставят равнодушными ни взрослых, ни детей. Эту ленту с удовольствием посмотрят дети и все любители природы. Съемки происходили в живописнейших местах Шотландии. Фильм очень красивый, съемки уникальные - подводные сцены плавающих выдр великолепны, исторически фильм очень правдив - и обстановка, и костюмы, и дух того времени, и процесс охоты показаны очень хорошо

Продолжительность: 01:31:30
Перевод: Профессиональный одноголосый
Субтитры: Русские, английские
Файл
Качество: BDRip (1080p)
Видео: MPEG-4 AVC, 11.8 Мбит/с, 1800x1080, 24.000 кадр/с
Аудио: Русский (AC3, 2 ch, 192 Кбит/с) - А.Васильев (КС "Довженко")
Аудио: Английский (AC3, 2 ch, 192 Кбит/с)
Полное имя : E:Tarka.the.Otter.1978.BDRip.1080p.HDReactor.mkv
Формат : Matroska
Версия формата : Version 2
Размер файла : 7,76 Гбайт
Продолжительность : 1 ч. 31 м.
Общий поток : 12,1 Мбит/сек
Название фильма : ~V ad~
Дата кодирования : UTC 2019-07-11 14:12:18
Программа кодирования : mkvmerge v6.5.0 ('Isn't she lovely') built on Oct 20 2013 12:50:05
Библиотека кодирования : libebml v1.3.0 + libmatroska v1.4.1
Обложка : Yes
Attachments : cover.jpg
Видео
Идентификатор : 1
Формат : AVC
Формат/Информация : Advanced Video Codec
Профиль формата : High@L4.1
Настройки формата : CABAC / 4 Ref Frames
Параметр CABAC формата : Да
Параметр RefFrames формата : 4 кадра
Идентификатор кодека : V_MPEG4/ISO/AVC
Продолжительность : 1 ч. 31 м.
Битрейт : 11,8 Мбит/сек
Ширина : 1800 пикселей
Высота : 1080 пикселей
Соотношение сторон : 5:3
Режим частоты кадров : Постоянный
Частота кадров : 24,000 кадра/сек
Цветовое пространство : YUV
Субдискретизация насыщенности : 4:2:0
Битовая глубина : 8 бит
Тип развёртки : Прогрессивная
Бит/(Пиксели*Кадры) : 0.252
Размер потока : 7,36 Гбайт (95%)
Заголовок : ~V~
Библиотека кодирования : x264 core 157 r2945 72db437
Настройки программы : cabac=1 / ref=4 / deblock=1:-3:-3 / analyse=0x3:0x133 / me=umh / subme=11 / psy=1 / psy_rd=1.00:0.00 / mixed_ref=1 / me_range=32 / chroma_me=1 / trellis=2 / 8x8dct=1 / cqm=0 / deadzone=21,11 / fast_pskip=0 / chroma_qp_offset=-2 / threads=12 / lookahead_threads=1 / sliced_threads=0 / nr=0 / decimate=0 / interlaced=0 / bluray_compat=0 / constrained_intra=0 / bframes=11 / b_pyramid=2 / b_adapt=2 / b_bias=0 / direct=3 / weightb=1 / open_gop=0 / weightp=2 / keyint=240 / keyint_min=24 / scenecut=40 / intra_refresh=0 / rc=2pass / mbtree=0 / bitrate=11755 / ratetol=1.0 / qcomp=0.76 / qpmin=0 / qpmax=69 / qpstep=4 / cplxblur=20.0 / qblur=0.5 / ip_ratio=1.30 / pb_ratio=1.30 / aq=3:0.90
Язык : Английский
Default : Да
Forced : Нет
Аудио #1
Идентификатор : 2
Формат : AC-3
Формат/Информация : Audio Coding 3
Коммерческое название : Dolby Digital
Идентификатор кодека : A_AC3
Продолжительность : 1 ч. 31 м.
Вид битрейта : Постоянный
Битрейт : 192 Кбит/сек
Каналы : 2 канала
Channel layout : L R
Частота : 48,0 КГц
Частота кадров : 31,250 кадров/сек (1536 SPF)
Битовая глубина : 16 бит
Метод сжатия : С потерями
Размер потока : 126 Мбайт (2%)
Заголовок : P1 [А.Васильев] КС "Довженко"
Язык : Русский
Service Kind : Complete Main
Default : Да
Forced : Нет
Аудио #2
Идентификатор : 3
Формат : AC-3
Формат/Информация : Audio Coding 3
Коммерческое название : Dolby Digital
Идентификатор кодека : A_AC3
Продолжительность : 1 ч. 31 м.
Вид битрейта : Постоянный
Битрейт : 192 Кбит/сек
Каналы : 2 канала
Channel layout : L R
Частота : 48,0 КГц
Частота кадров : 31,250 кадров/сек (1536 SPF)
Битовая глубина : 16 бит
Метод сжатия : С потерями
Размер потока : 126 Мбайт (2%)
Язык : Английский
Service Kind : Complete Main
Default : Нет
Forced : Нет
Текст #1
Идентификатор : 4
Формат : UTF-8
Идентификатор кодека : S_TEXT/UTF8
Идентификатор кодека/Информация : UTF-8 Plain Text
Язык : Русский
Default : Нет
Forced : Нет
Текст #2
Идентификатор : 5
Формат : UTF-8
Идентификатор кодека : S_TEXT/UTF8
Идентификатор кодека/Информация : UTF-8 Plain Text
Заголовок : SDH
Язык : Английский
Default : Нет
Forced : Нет
Меню
00:00:00.000 : en:Chapter 01
00:08:25.708 : en:Chapter 02
00:16:18.916 : en:Chapter 03
00:23:25.791 : en:Chapter 04
00:29:58.708 : en:Chapter 05
00:38:24.708 : en:Chapter 06
00:43:03.916 : en:Chapter 07
00:48:39.500 : en:Chapter 08
00:58:27.875 : en:Chapter 09
01:07:02.541 : en:Chapter 10
01:15:23.708 : en:Chapter 11
01:22:41.666 : en:Chapter 12


Сэмпл
Релиз от:
Не забывайте говорить Спасибо. Не уходите с раздачи!   
Торрент: Зарегистрирован [11 июл 2019, 18:37]
Статус:
Проверен
 
.torrent скачан: 2651 раз
Хэш: 408dbda246252462854228c876ff6c7da00d2df7
Размер: 7.76 ГБ (8 331 453 011 байт)
   Стать Автором раздачи
   
Цитата
  • Похожие торренты
    Ответы
    Просмотры
    Последнее сообщение

Вернуться в Зарубежное кино (HD Video)

Кто сейчас на конференции

Сейчас эту тему просматривают: нет зарегистрированных пользователей и гости: 1