Скорпион / Вichhoo [боевик, триллер, драма, криминал, 2000] HDTV 1080p, Mvo

 Статистика раздачи 
Размер: 11.26 ГБ   |  Зарегистрирован: 15 окт 2017, 17:27   |   .torrent скачан: 0 раз
Сидеров: 0  [ 0 байт/сек ]     Личеров: 0  [ 0 байт/сек ]  
  
Аватара пользователя
 
Раздал: 3.16 ТБ
Скачал: 38.27 ГБ
Ратио: 84.430
Сообщения: 191010
Стаж: 1 год 6 месяцев 30 дней

Год выпуска: 2000
Жанр: боевик, триллер, драма, криминал
Режиссер: Гудду Даноа

В ролях: Бобби Деол, Рани Мукхерджи, Ашиш Видьятхи, Фарида Джалал, Мохан Джоши, Махавир Шах, Сачин Кхедекар, Малайка Арора, Ганеш Ачария, Ишрат Али

О фильме: После убийства родителей жизнь молодой, богатой и некогда избалованной девушки резко меняется. Она клянется отомстить за их смерть и выходит на контакт с профессиональным убийцей, который берется обучить ее всем тонкостям «нового ремесла». Аналог фильма «Леон» в индийском исполнении.

Выпущено: Индия, Bhagwan Chitra Mandin
Продолжительность: 02:35:49
Перевод: Профессиональный [многоголосый]

Качество: HDTV (1080p)
Видео: MPEG-4 AVC, ~ 10 Мбит/с, 1920x1080
Аудио: Русский, хинди (АС3, 2 ch, 192 Кбит/с)
Код: Выделить всё
General
Unique ID : 178241989906414310676768097510076951738 (0x8618289818725D8FACEF63F9F0CFACBA)
Complete name : D:торрентготовыеBichhoo(2000)HDTV1080p.Generalfilm.mkv
Format : Matroska
Format version : Version 4 / Version 2
File size : 11.3 GiB
Duration : 2h 35mn
Overall bit rate mode : Constant
Overall bit rate : 10.3 Mbps
Encoded date : UTC 2017-10-14 11:25:11
Writing application : mkvmerge v6.8.0 ('Theme for Great Cities') 64bit built on Mar 2 2014 21:34:26
Writing library : libebml v1.3.0 + libmatroska v1.4.1

Video
ID : 1
Format : AVC
Format/Info : Advanced Video Codec
Format profile : High@L4.1
Format settings, CABAC : Yes
Format settings, ReFrames : 3 frames
Codec ID : V_MPEG4/ISO/AVC
Duration : 2h 35mn
Bit rate mode : Constant
Bit rate : 10 000 Kbps
Width : 1 920 pixels
Height : 1 080 pixels
Display aspect ratio : 16:9
Frame rate mode : Constant
Frame rate : 25.000 fps
Standard : PAL
Color space : YUV
Chroma subsampling : 4:2:0
Bit depth : 8 bits
Scan type : Progressive
Bits/(Pixel*Frame) : 0.193
Stream size : 10.6 GiB (94%)
Default : Yes
Forced : No
Color range : Limited
Color primaries : BT.709
Transfer characteristics : BT.709
Matrix coefficients : BT.709

Audio #1
ID : 2
Format : AC-3
Format/Info : Audio Coding 3
Mode extension : CM (complete main)
Format settings, Endianness : Big
Codec ID : A_AC3
Duration : 2h 35mn
Bit rate mode : Constant
Bit rate : 192 Kbps
Channel(s) : 2 channels
Channel positions : Front: L R
Sampling rate : 48.0 KHz
Frame rate : 31.250 fps (1536 spf)
Compression mode : Lossy
Stream size : 214 MiB (2%)
Language : Russian
Default : Yes
Forced : No

Audio #2
ID : 3
Format : AC-3
Format/Info : Audio Coding 3
Mode extension : CM (complete main)
Format settings, Endianness : Big
Codec ID : A_AC3
Duration : 2h 35mn
Bit rate mode : Constant
Bit rate : 192 Kbps
Channel(s) : 2 channels
Channel positions : Front: L R
Sampling rate : 48.0 KHz
Frame rate : 31.250 fps (1536 spf)
Compression mode : Lossy
Stream size : 214 MiB (2%)
Language : Hindi
Default : No
Forced : No


Не забывайте говорить Спасибо. Не уходите с раздачи!   
Торрент: Зарегистрирован [15 окт 2017, 17:27] Для скачивания .torrent
необходима регистрация
Или скачать с помощью
MediaGet
Статус:
Проверен
 
.torrent скачан: 0 раз
Размер: 11.26 ГБ (12 091 016 391 байт)
   Стать Автором раздачи
   
Цитата
  • Похожие торренты
    Ответы
    Просмотры
    Последнее сообщение

Вернуться в Индийское кино

Кто сейчас на конференции

Сейчас эту тему просматривают: нет зарегистрированных пользователей и гости: 1