Молодой детектив Ди: Восстание морского дракона / Young Detective Dee: Rise of the Sea Dragon (2013) BDRip-AVC от SuperMin | L2

 Статистика раздачи 
Размер: 2.05 ГБ   |  Зарегистрирован: 11 июн 2019, 16:35   |   .torrent скачан: 445 раз
Сидеров: 99  [ 0 байт/сек ]     Личеров: 17  [ 0 байт/сек ]  
  
Аватара пользователя
 
Раздал: 2.35 ТБ
Скачал: 50.54 ГБ
Ратио: 47.604
Сообщения: 208299
Стаж: 2 года 11 месяцев 13 дней

Информация о фильме
Название: Молодой детектив Ди: Восстание морского дракона
Оригинальное название: Young Detective Dee: Rise of the Sea Dragon
Год выхода: 2013
Жанр: Фентези, боевик, триллер, детектив
Режиссер: Цуй Харк
В ролях: Марк Чао, Анджела Бейби, Чэнь Кунь, Уильям Фэн, Дун Ху, Ким Бом, Карина Лау, Линь Гэн Синь, Цзинцзин Ма


Посреди океана огромное судно терпит крушение. Ученые не понимают, как же это могло случится, ведь в период крушения судна, не было никакого серьезного шторма или же каких-то других катаклизмов. В общем, получается, что данный случай просто невозможно объяснить. Что же все таки случилось с кораблем? Что случилось со всеми членами нашей команды? На этот сложный вопрос должен будет ответить один молодой детектив, зовут которого Ди. Для того, чтобы ответить на этот сложный и страшный вопрос, ему потребуется отправиться к месту крушения этого судна. Парень совсем не догадывается о том, что в водах океана ожило какое-то чудовище. Получается так, что это чудовище только и ждет того, чтобы на эту территорию прибыл еще один корабль. Ведь именно за счет кораблей это древнее чудовище просто питается. Чудовище сможет разрушить любой корабль...


Страна: Китай, Гонконг
Продолжительность: 02:13:28
Перевод: Любительское (двухголосое) GREEN TEA

Файл
Кодек: H.264
Качество: BDRip-AVC от SuperMin
Видео: 1104x464 (2.40:1), 2005 kbps, 24.000 fps
Звук: Русский (AC-3, 2ch, 192 kbps)
General
Unique ID : 139620263293017781970071555652596793086 (0x6909E2749DCD742BA19047EA0EBBFEFE)
Complete name : F:ДЕТЕКТИВ ДИМолодой детектив Ди. Восстание морского дракона.mkv
Format : Matroska
Format version : Version 4
File size : 2.05 GiB
Duration : 2 h 13 min
Overall bit rate : 2 198 kb/s
Movie name : Молодой детектив Ди: Восстание морского дракона / Young Detective Dee: Rise of the Sea Dragon (2013) - #LORDKILL#
Encoded date : UTC 2019-06-11 12:57:12
Writing application : mkvmerge v21.0.0 ('Tardigrades Will Inherit The Earth') 64-bit
Writing library : libebml v1.3.5 + libmatroska v1.4.8

Video
ID : 1
Format : AVC
Format/Info : Advanced Video Codec
Format profile : High@L4.1
Format settings : CABAC / 12 Ref Frames
Format settings, CABAC : Yes
Format settings, Reference : 12 frames
Codec ID : V_MPEG4/ISO/AVC
Duration : 2 h 13 min
Bit rate : 2 005 kb/s
Width : 1 104 pixels
Height : 464 pixels
Display aspect ratio : 2.40:1
Frame rate mode : Constant
Frame rate : 24.000 FPS
Color space : YUV
Chroma subsampling : 4:2:0
Bit depth : 8 bits
Scan type : Progressive
Bits/(Pixel*Frame) : 0.163
Stream size : 1.87 GiB (91%)
Writing library : x264 core 146 r2538 121396c
Encoding settings : cabac=1 / ref=12 / deblock=1:-2:-2 / analyse=0x3:0x113 / me=umh / subme=10 / psy=1 / psy_rd=1.00:0.15 / mixed_ref=1 / me_range=32 / chroma_me=1 / trellis=2 / 8x8dct=1 / cqm=0 / deadzone=21,11 / fast_pskip=0 / chroma_qp_offset=-3 / threads=12 / lookahead_threads=2 / sliced_threads=0 / nr=0 / decimate=1 / interlaced=0 / bluray_compat=0 / constrained_intra=0 / bframes=7 / b_pyramid=2 / b_adapt=2 / b_bias=0 / direct=1 / weightb=1 / open_gop=0 / weightp=2 / keyint=240 / keyint_min=23 / scenecut=40 / intra_refresh=0 / rc=crf / mbtree=0 / crf=20.0 / qcomp=0.60 / qpmin=0 / qpmax=69 / qpstep=4 / ip_ratio=1.40 / pb_ratio=1.30 / aq=1:1.00
Language : English
Default : Yes
Forced : No

Audio
ID : 2
Format : AC-3
Format/Info : Audio Coding 3
Commercial name : Dolby Digital
Codec ID : A_AC3
Duration : 2 h 13 min
Bit rate mode : Constant
Bit rate : 192 kb/s
Channel(s) : 2 channels
Channel layout : L R
Sampling rate : 48.0 kHz
Frame rate : 31.250 FPS (1536 SPF)
Bit depth : 16 bits
Compression mode : Lossy
Stream size : 183 MiB (9%)
Language : Russian
Service kind : Complete Main
Default : Yes
Forced : No
Не забывайте говорить Спасибо. Не уходите с раздачи!   
Торрент: Зарегистрирован [11 июн 2019, 16:35]
Статус:
Проверен
 
.torrent скачан: 445 раз
Хэш: cf04480f2f6b28a31c58311a8f97f494c626c928
Размер: 2.05 ГБ (2 200 851 330 байт)
   Стать Автором раздачи
   
Ничто так не успокаивает, как инструктаж по технике безопасности.
Цитата
  • Похожие торренты
    Ответы
    Просмотры
    Последнее сообщение

Вернуться в Зарубежное кино (HDRip, DVDRip)

Кто сейчас на конференции

Сейчас эту тему просматривают: нет зарегистрированных пользователей и гости: 1