Попался, или Шпионские игры / Gotcha! (1985) WEB-DLRip-AVC | P2

 Статистика раздачи 
Размер: 2.74 ГБ   |  Зарегистрирован: 11 июн 2019, 16:56   |   .torrent скачан: 122 раз
Сидеров: 24  [ 0 байт/сек ]     Личеров: 3  [ 0 байт/сек ]  
  
Аватара пользователя
 
Раздал: 2.35 ТБ
Скачал: 50.54 ГБ
Ратио: 47.604
Сообщения: 208299
Стаж: 2 года 11 месяцев 13 дней

Информация о фильме
Название: Попался, или Шпионские игры
Оригинальное название: Gotcha!
Год выхода: 1985
Жанр: боевки, комедия, детектив
Режиссер: Джеф Кэнью
В ролях: Энтони Эдвардс, Линда Фиорентино, Джейсу Гарсия, Алекс Рокко, Марла Адамс, Клаус Лёвич, Кристофер Райделл, Кристи Кларидж, Брэд Кауджилл, Кэри Лайзер

О фильме:
Джонатан Моор, американский студент 18-ти лет, на летнии каникулы отправляется с приятелем попутешествовать по Европе. В Париже, в маленькой кафешке он знакомится с очаровательной брюнеткой Сашей, в которую влюбляется по уши. И невдомек пареньку, ослепленному лиричными чувствами, что эта девица совсем не та, за которую себя выдает. И Саша решает использовать Джонатана по полной программе в своих опасных шпионских играх.



Страна: США
Продолжительность: 01:40:51
Перевод: Профессиональный (двухголосый, закадровый)
Субтитры: Английские (полные + вшитые-не отключаемые, на иностранную речь)

Файл
Формат: Matroska
Качество: WEB-DLRip-AVC
Видео: 1024x554 at 23.976 fps, x264, ~3500 kbps
Аудио #1: AC3, 48 kHz, 2 ch, 192 kb/s (RUS)
Аудио #2: AC3, 48 kHz, 2 ch, 192 kb/s (ENG)
Формат субтитров: softsub (SRT)

***Релиз от: -=DoMiNo=-

x264 info: frame I:1200 Avg QP:16.16 size: 85884
x264 info: frame P:29977 Avg QP:18.91 size: 33190
x264 info: frame B:113911 Avg QP:20.10 size: 13586
x264 info: consecutive B-frames: 1.9% 2.4% 5.7% 19.9% 15.0% 37.9% 6.3% 7.7% 1.9% 1.0% 0.3%

General
Unique ID : 194325826981766271282760714513604057168 (0x9231CAFC7D9318EE256A2C402C629850)
Complete name : G:Видео_1TEMP_DeleteПопался, или Шпионские игры.(1996).WEB-DLRip-AVC.[-=DoMiNo=-].mkv
Format : Matroska
Format version : Version 4
File size : 2.74 GiB
Duration : 1 h 40 min
Overall bit rate : 3 884 kb/s
Movie name : Попался, или Шпионские игры / Gotcha! (1985)
Encoded date : UTC 2019-06-11 13:49:28
Writing application : mkvmerge v34.0.0 ('Sight and Seen') 64-bit
Writing library : libebml v1.3.7 + libmatroska v1.5.0
Attachments : poster

Video
ID : 1
Format : AVC
Format/Info : Advanced Video Codec
Format profile : High@L4.1
Format settings : CABAC / 10 Ref Frames
Format settings, CABAC : Yes
Format settings, Reference : 10 frames
Codec ID : V_MPEG4/ISO/AVC
Duration : 1 h 40 min
Bit rate : 3 500 kb/s
Width : 1 024 pixels
Height : 554 pixels
Display aspect ratio : 1.85:1
Frame rate mode : Constant
Frame rate : 23.976 (24000/1001) FPS
Color space : YUV
Chroma subsampling : 4:2:0
Bit depth : 8 bits
Scan type : Progressive
Bits/(Pixel*Frame) : 0.257
Stream size : 2.46 GiB (90%)
Title : RIP_BY_-=DoMiNo=-
Writing library : x264 core 157 r2969 d4099dd
Encoding settings : cabac=1 / ref=10 / deblock=1:-2:-2 / analyse=0x3:0x133 / me=umh / subme=11 / psy=1 / psy_rd=1.00:0.00 / mixed_ref=1 / me_range=32 / chroma_me=1 / trellis=2 / 8x8dct=1 / cqm=0 / deadzone=21,11 / fast_pskip=0 / chroma_qp_offset=-2 / threads=6 / lookahead_threads=1 / sliced_threads=0 / nr=0 / decimate=0 / interlaced=0 / bluray_compat=0 / constrained_intra=0 / bframes=10 / b_pyramid=2 / b_adapt=2 / b_bias=0 / direct=3 / weightb=1 / open_gop=0 / weightp=2 / keyint=250 / keyint_min=23 / scenecut=40 / intra_refresh=0 / rc=2pass / mbtree=0 / bitrate=3500 / ratetol=1.0 / qcomp=0.80 / qpmin=0 / qpmax=69 / qpstep=4 / cplxblur=20.0 / qblur=0.5 / ip_ratio=1.40 / pb_ratio=1.30 / aq=3:1.00
Default : Yes
Forced : No
Color range : Limited
Color primaries : BT.709
Transfer characteristics : BT.709
Matrix coefficients : BT.709

Audio #1
ID : 2
Format : AC-3
Format/Info : Audio Coding 3
Commercial name : Dolby Digital
Codec ID : A_AC3
Duration : 1 h 40 min
Bit rate mode : Constant
Bit rate : 192 kb/s
Channel(s) : 2 channels
Channel layout : L R
Sampling rate : 48.0 kHz
Frame rate : 31.250 FPS (1536 SPF)
Bit depth : 16 bits
Compression mode : Lossy
Stream size : 139 MiB (5%)
Title : DVO
Language : Russian
Service kind : Complete Main
Default : Yes
Forced : No

Audio #2
ID : 3
Format : AC-3
Format/Info : Audio Coding 3
Commercial name : Dolby Digital
Codec ID : A_AC3
Duration : 1 h 40 min
Bit rate mode : Constant
Bit rate : 192 kb/s
Channel(s) : 2 channels
Channel layout : L R
Sampling rate : 48.0 kHz
Frame rate : 31.250 FPS (1536 SPF)
Bit depth : 16 bits
Compression mode : Lossy
Stream size : 139 MiB (5%)
Title : ENG
Language : English
Service kind : Complete Main
Default : No
Forced : No

Text
ID : 4
Format : UTF-8
Codec ID : S_TEXT/UTF8
Codec ID/Info : UTF-8 Plain Text
Duration : 1 h 40 min
Bit rate : 59 b/s
Count of elements : 1194
Stream size : 43.9 KiB (0%)
Title : ENG
Language : English
Default : No
Forced : No

Menu
00:00:00.000 : en:Глава 01
00:07:30.000 : en:Глава 02
00:15:00.000 : en:Глава 03
00:22:30.000 : en:Глава 04
00:30:00.000 : en:Глава 05
00:37:30.000 : en:Глава 06
00:45:00.000 : en:Глава 07
00:52:30.000 : en:Глава 08
01:00:00.000 : en:Глава 09
01:07:30.000 : en:Глава 10
01:15:00.000 : en:Глава 11
01:22:30.000 : en:Глава 12
01:30:00.000 : en:Глава 13
01:37:30.000 : en:Глава 14
Не забывайте говорить Спасибо. Не уходите с раздачи!   
Торрент: Зарегистрирован [11 июн 2019, 16:56]
Статус:
Проверен
 
.torrent скачан: 122 раз
Хэш: 395d7028ec0461c8d171d9856d9668e163d181a7
Размер: 2.74 ГБ (2 937 780 968 байт)
   Стать Автором раздачи
   
Ничто так не успокаивает, как инструктаж по технике безопасности.
Цитата

Вернуться в Зарубежное кино (HDRip, DVDRip)

Кто сейчас на конференции

Сейчас эту тему просматривают: нет зарегистрированных пользователей и гости: 1