Армейский пирог / Achtung, fertig, Charlie! / Ready, Steady, Charlie! (2003) HDRip | D

 Статистика раздачи 
Размер: 746.63 МБ   |  Зарегистрирован: 11 июн 2019, 18:31   |   .torrent скачан: 315 раз
Сидеров: 25  [ 0 байт/сек ]     Личеров: 3  [ 0 байт/сек ]  
  
Аватара пользователя
 
Раздал: 2.59 ТБ
Скачал: 50.54 ГБ
Ратио: 52.411
Сообщения: 210752
Стаж: 3 года 1 месяц 18 дней

Информация о фильме
Название: Армейский пирог
Оригинальное название: Achtung, fertig, Charlie!
Год выхода: 2003
Жанр: Комедия, мелодрама

Режиссер: Майк Эшманн / Mike Eschmann
В ролях: Майкл Кох, Мелани Винигер, Мириам Эгертер, Марко Рима, Мартин Рапольд, Макс Рюдлингер, Николас Стейнер, Кая Инан, Марио Альмер, Майк Мюллер

О фильме:
Воинский долг — превыше всего. Это и пришлось испытать красавцу Антонио в самый главный день своей жизни, когда он повел к алтарю девушку своей мечты. В тот самый момент появились посланцы Министерства Обороны и под конвоем доставили беднягу-жениха прямо во фраке на призывной пункт.

Капитан довольно потирает руки и злорадствует в предвкушении «больших маневров». А выжить помогут только боевые товарищи, среди которых убежденный пацифист, симпатичный гей, удачливый плейбой, великий экспериментатор в области травок, таблеток и прочей дурманящей ерунды, среди объектов желания которых — не только женщины, но и обогревательные приборы.

Ну и, конечно, очаровательные сослуживицы, добровольно вставшие «под ружье», но вместо оружия получившие почетное право дуть в тромбон на утренних построениях. Все попытки незадачливого жениха соединиться с возлюбленной неизменно завершаются гауптвахтой. Единственный способ быть отчисленным из учебки — соблазнить дочку командира Мишель, но коварный план дает сбой…



Страна: Швейцария
Продолжительность: 01:31:36
Перевод: Дублированный

Файл
Качество: HDRip
Видео: XviD MPEG-4, 704x384, 1002 kbps, 23,976 fps
Звук: MPEG-1 Layer 3, 128 kbps, 2.0 ch, 48000 Hz
Субтитры: нет
Format : AVI
Format/Info : Audio Video Interleave
File size : 747 MiB
Duration : 1 h 31 min
Overall bit rate : 1 140 kb/s
Movie name : Армейский пирог / Achtung, fertig, Charlie! (2003)
Writing application : VirtualDubMod 1.5.10.3 | www.virtualdub-fr.org || (build 2550/release)
Writing library : VirtualDubMod build 2550/release

Video
ID : 0
Format : MPEG-4 Visual
Format profile : Advanced Simple@L5
Format settings : BVOP2 / Custom Matrix
Format settings, BVOP : 2
Format settings, QPel : No
Format settings, GMC : No warppoints
Format settings, Matrix : Custom
Codec ID : XVID
Codec ID/Hint : XviD
Duration : 1 h 31 min
Bit rate : 1 002 kb/s
Width : 704 pixels
Height : 384 pixels
Display aspect ratio : 1.85:1
Frame rate : 23.976 (24000/1001) FPS
Original frame rate : 23.976 (23976/1000) FPS
Color space : YUV
Chroma subsampling : 4:2:0
Bit depth : 8 bits
Scan type : Progressive
Compression mode : Lossy
Bits/(Pixel*Frame) : 0.155
Stream size : 657 MiB (88%)
Writing library : XviD 73

Audio
ID : 1
Format : MPEG Audio
Format version : Version 1
Format profile : Layer 3
Format settings : Joint stereo / MS Stereo
Codec ID : 55
Codec ID/Hint : MP3
Duration : 1 h 31 min
Bit rate mode : Constant
Bit rate : 128 kb/s
Channel(s) : 2 channels
Sampling rate : 48.0 kHz
Frame rate : 41.667 FPS (1152 SPF)
Compression mode : Lossy
Stream size : 83.9 MiB (11%)
Alignment : Aligned on interleaves
Interleave, duration : 42 ms (1.00 video frame)
Interleave, preload duration : 504 ms
Title : DUB - Russian
Writing library : LAME3.100
Encoding settings : -m j -V 4 -q 2 -lowpass 17 -b 128


Не забывайте говорить Спасибо. Не уходите с раздачи!   
Торрент: Зарегистрирован [11 июн 2019, 18:31]
Статус:
Проверен
 
.torrent скачан: 315 раз
Хэш: 9e3a1061fd11065674bc8c468e9ef238a21b8cc0
Размер: 746.63 МБ (782 897 152 байт)
   Стать Автором раздачи
   
Ничто так не успокаивает, как инструктаж по технике безопасности.
Цитата
  • Похожие торренты
    Ответы
    Просмотры
    Последнее сообщение

Вернуться в Зарубежное кино (HDRip, DVDRip)

Кто сейчас на конференции

Сейчас эту тему просматривают: нет зарегистрированных пользователей и гости: 1