Мы / Us (2019) BDRip 720p от селезень | iTunes

 Статистика раздачи 
Размер: 3.84 ГБ   |  Зарегистрирован: 11 июн 2019, 16:43   |   .torrent скачан: 4908 раз
Сидеров: 794  [ 0 байт/сек ]     Личеров: 161  [ 0 байт/сек ]  
  
Аватара пользователя
 
Раздал: 2.6 ТБ
Скачал: 50.54 ГБ
Ратио: 52.737
Сообщения: 211758
Стаж: 3 года 2 месяца 19 дней
СообщениеДобавлено: 11 июн 2019, 16:43


Информация о фильме
Название: Мы
Оригинальное название: Us
Год выхода: 2019
Жанр: Ужасы, триллер
Режиссер: Джордан Пил
В ролях: Лупита Нионго, Уинстон Дьюк, Элизабет Мосс, Тим Хайдекер, Шахади Райт Джозеф, Эван Алекс, Яхья Абдул-Матин II, Анна Диоп, Кали Шелдон, Ноэль Шелдон, Мэдисон Карри, Эшли МакКой, Напьера Гровс, Лон Гоуэн, Дастин Ибарра



О фильме: Будучи маленькой девочкой, Аделаида пережила травмирующее событие. В парке развлечений на побережье она отошла от родителей и забрела в зеркальный лабиринт, где встретила свою точную копию. Через много лет, уже с мужем и детьми, Аделаида приезжает в дом бабушки, который находится рядом с тем самым злосчастным парком, и с самого начала женщина чувствует себя не в своей тарелке. Муж считает, что в таком прекрасном месте нужно расслабляться, а не нервничать, но его мнение быстро меняется, когда перед домом появляются незнакомцы в красных комбинезонах с явно агрессивными намерениями.

Страна: США, Япония, Китай
Студия: Monkeypaw Productions
Продолжительность: 01:56:27
Перевод: Дублированный | iTunes

Качество: BDRip 720p
Видео: MPEG-4 AVC, 1280x536, 3884 Kbit/s, 23.976 fps
Звук:
Аудио #01: 48 kHz, AC3, 5.1, 384 Kbps | iTunes | RUS |
Аудио #02: 48 kHz, AC3, 5.1, 448 Kbps | Оригинал | ENG |
Субтитры: Русские (full), английские



General
Unique ID : 218822785605768293966571094957663651642 (0xA49FBC4BC67343B409A567158D07073A)
Complete name : D:Video111Us.2019.BDRip.720p.seleZen.mkv
Format : Matroska
Format version : Version 4
File size : 3.84 GiB
Duration : 1 h 56 min
Overall bit rate : 4 718 kb/s
Movie name : Us 2019 from селезень
Encoded date : UTC 2019-06-11 13:36:35
Writing application : mkvmerge v33.1.0 ('Primrose') 64-bit
Writing library : libebml v1.3.7 + libmatroska v1.5.0

Video
ID : 1
Format : AVC
Format/Info : Advanced Video Codec
Format profile : High@L4.1
Format settings : CABAC / 12 Ref Frames
Format settings, CABAC : Yes
Format settings, Reference : 12 frames
Codec ID : V_MPEG4/ISO/AVC
Duration : 1 h 56 min
Bit rate : 3 884 kb/s
Width : 1 280 pixels
Height : 536 pixels
Display aspect ratio : 2.40:1
Frame rate mode : Constant
Frame rate : 23.976 (24000/1001) FPS
Color space : YUV
Chroma subsampling : 4:2:0
Bit depth : 8 bits
Scan type : Progressive
Bits/(Pixel*Frame) : 0.236
Stream size : 3.16 GiB (82%)
Title : MTeam
Writing library : x264 core 157 r2938 2b00a84 TnP@MTeam Mod
Encoding settings : cabac=1 / ref=12 / deblock=1:-3:-3 / analyse=0x3:0x133 / me=umh / subme=10 / psy=1 / psy_rd=1.05:0.00 / mixed_ref=1 / me_range=32 / chroma_me=1 / trellis=2 / 8x8dct=1 / cqm=0 / deadzone=21,11 / fast_pskip=0 / chroma_qp_offset=-2 / threads=12 / lookahead_threads=2 / sliced_threads=0 / nr=0 / decimate=0 / interlaced=0 / bluray_compat=0 / constrained_intra=0 / bframes=8 / b_pyramid=2 / b_adapt=2 / b_bias=0 / direct=3 / weightb=1 / open_gop=0 / weightp=2 / keyint=250 / keyint_min=24 / scenecut=40 / intra_refresh=0 / rc_lookahead=250 / rc=crf / mbtree=0 / crf=15.7 / qcomp=0.60 / qpmin=0 / qpmax=69 / qpstep=4 / vbv_maxrate=62500 / vbv_bufsize=78125 / crf_max=0.0 / nal_hrd=none / filler=0 / ip_ratio=1.30 / pb_ratio=1.20 / aq=3:0.80
Language : English
Default : Yes
Forced : No
Color range : Limited
Color primaries : BT.709
Matrix coefficients : BT.709

Audio #1
ID : 2
Format : AC-3
Format/Info : Audio Coding 3
Commercial name : Dolby Digital
Codec ID : A_AC3
Duration : 1 h 56 min
Bit rate mode : Constant
Bit rate : 384 kb/s
Channel(s) : 6 channels
Channel layout : L R C LFE Ls Rs
Sampling rate : 48.0 kHz
Frame rate : 31.250 FPS (1536 SPF)
Bit depth : 16 bits
Compression mode : Lossy
Stream size : 320 MiB (8%)
Title : iTunes
Language : Russian
Service kind : Complete Main
Default : Yes
Forced : Yes

Audio #2
ID : 3
Format : AC-3
Format/Info : Audio Coding 3
Commercial name : Dolby Digital
Codec ID : A_AC3
Duration : 1 h 56 min
Bit rate mode : Constant
Bit rate : 448 kb/s
Channel(s) : 6 channels
Channel layout : L R C LFE Ls Rs
Sampling rate : 48.0 kHz
Frame rate : 31.250 FPS (1536 SPF)
Bit depth : 16 bits
Compression mode : Lossy
Stream size : 373 MiB (9%)
Title : Original
Language : English
Service kind : Complete Main
Default : No
Forced : No

Text #1
ID : 4
Format : UTF-8
Codec ID : S_TEXT/UTF8
Codec ID/Info : UTF-8 Plain Text
Duration : 1 h 49 min
Bit rate : 53 b/s
Count of elements : 1007
Stream size : 43.0 KiB (0%)
Title : Full
Language : Russian
Default : No
Forced : No

Text #2
ID : 5
Format : UTF-8
Codec ID : S_TEXT/UTF8
Codec ID/Info : UTF-8 Plain Text
Duration : 1 h 49 min
Bit rate : 35 b/s
Count of elements : 1038
Stream size : 28.6 KiB (0%)
Title : Full
Language : English
Default : No
Forced : No

Menu
00:00:00.000 : en:Chapter 01
00:06:05.156 : en:Chapter 02
00:11:25.351 : en:Chapter 03
00:17:12.114 : en:Chapter 04
00:23:24.653 : en:Chapter 05
00:29:31.520 : en:Chapter 06
00:36:07.791 : en:Chapter 07
00:41:07.757 : en:Chapter 08
00:48:08.302 : en:Chapter 09
00:55:43.257 : en:Chapter 10
01:03:00.318 : en:Chapter 11
01:07:49.357 : en:Chapter 12
01:14:25.294 : en:Chapter 13
01:20:12.016 : en:Chapter 14
01:25:25.954 : en:Chapter 15
01:29:44.045 : en:Chapter 16
01:35:21.674 : en:Chapter 17
01:40:54.548 : en:Chapter 18
01:47:36.909 : en:Chapter 19
01:52:14.394 : en:Chapter 20


Релиз:

Не забывайте говорить Спасибо. Не уходите с раздачи!   
Торрент: Зарегистрирован [11 июн 2019, 16:43]
Статус:
Проверен
 
.torrent скачан: 4908 раз
Хэш: 3fc5baa18ca289e9e81bee0a388ebefc6976f034
Размер: 3.84 ГБ (4 121 100 432 байт)
   Стать Автором раздачи
   
Ничто так не успокаивает, как инструктаж по технике безопасности.
Цитата
  • Похожие торренты
    Ответы
    Просмотры
    Последнее сообщение

Вернуться в Зарубежное кино (HD Video)

Кто сейчас на конференции

Сейчас эту тему просматривают: нет зарегистрированных пользователей и гости: 1