Отель Мумбаи: Противостояние / Hotel Mumbai (2018) BDRemux 1080p от селезень | HDRezka Studio

 Статистика раздачи 
Размер: 33.84 ГБ   |  Зарегистрирован: 11 июн 2019, 18:06   |   .torrent скачан: 609 раз
Сидеров: 165  [ 0 байт/сек ]     Личеров: 115  [ 0 байт/сек ]  
  
Аватара пользователя
 
Раздал: 2.59 ТБ
Скачал: 50.54 ГБ
Ратио: 52.410
Сообщения: 210752
Стаж: 3 года 1 месяц 18 дней

Информация о фильме
Название: Отель Мумбаи: Противостояние
Оригинальное название: Hotel Mumbai
Год выхода: 2018
Жанр: Триллер, драма, история
Режиссер: Энтони Марас
В ролях: Арми Хаммер, Джейсон Айзекс, Назанин Бониади, Дев Патель, Наташа Лю Бордиццо, Амандип Сингх, Сухаил Найар, Манодж Мера, Динеш Кумар, Амриптал Сингх



О фильме:
Индия. Мумбаи. Роскошный отель «Тадж-Махал Палас» — гарантия безопасности. И каждый гость здесь — бог. Но однажды мир красоты, роскоши и комфорта рушится… Три дня противостояния смерти, три дня борьбы за выживание…


Страна: США, Австралия
Студия: A Hamilton and Electric Pictures Production, American Entertainment Investors, Cyan Films
Продолжительность: 02:02:52
Перевод: Профессиональный многоголосый | HDRezka Studio

Качество: BDRemux 1080p
Видео: MPEG-4 AVC, 1920x1080, 35.1 Mbit/s, 23.976 fps
Звук:
Аудио #01: 48 kHz, AC3, 2.0, 192 Kbps | HDRezka Studio | RUS |
Аудио #02: 48 kHz, DTS-HD MA, 5.1, 4141 Kbps | Оригинал | ENG |
Субтитры: Русские (Forced), английские



General
Unique ID : 226798694302388910929669251091547047090 (0xAA9FD6F4A52CED4E7A876DF96BD844B2)
Complete name : D:Video111Hotel.Mumbai.2018.MVO.BDREMUX.1080p.seleZen.mkv
Format : Matroska
Format version : Version 4
File size : 33.8 GiB
Duration : 2 h 2 min
Overall bit rate mode : Variable
Overall bit rate : 39.4 Mb/s
Movie name : Hotel Mumbai 2018 from селезень
Encoded date : UTC 2019-06-11 14:50:19
Writing application : mkvmerge v33.1.0 ('Primrose') 64-bit
Writing library : libebml v1.3.7 + libmatroska v1.5.0

Video
ID : 1
Format : AVC
Format/Info : Advanced Video Codec
Format profile : High@L4.1
Format settings : CABAC / 4 Ref Frames
Format settings, CABAC : Yes
Format settings, Reference : 4 frames
Codec ID : V_MPEG4/ISO/AVC
Duration : 2 h 2 min
Bit rate mode : Variable
Bit rate : 35.1 Mb/s
Maximum bit rate : 38.0 Mb/s
Width : 1 920 pixels
Height : 1 080 pixels
Display aspect ratio : 16:9
Frame rate mode : Constant
Frame rate : 23.976 (24000/1001) FPS
Color space : YUV
Chroma subsampling : 4:2:0
Bit depth : 8 bits
Scan type : Progressive
Bits/(Pixel*Frame) : 0.706
Stream size : 30.1 GiB (89%)
Language : English
Default : Yes
Forced : No

Audio #1
ID : 2
Format : AC-3
Format/Info : Audio Coding 3
Commercial name : Dolby Digital
Codec ID : A_AC3
Duration : 2 h 2 min
Bit rate mode : Constant
Bit rate : 192 kb/s
Channel(s) : 2 channels
Channel layout : L R
Sampling rate : 48.0 kHz
Frame rate : 31.250 FPS (1536 SPF)
Bit depth : 16 bits
Compression mode : Lossy
Stream size : 169 MiB (0%)
Title : MVO [HDRezka Studio]
Language : Russian
Service kind : Complete Main
Default : Yes
Forced : Yes

Audio #2
ID : 3
Format : DTS XLL
Format/Info : Digital Theater Systems
Commercial name : DTS-HD Master Audio
Codec ID : A_DTS
Duration : 2 h 2 min
Bit rate mode : Variable
Bit rate : 4 141 kb/s
Channel(s) : 6 channels
Channel layout : C L R Ls Rs LFE
Sampling rate : 48.0 kHz
Frame rate : 93.750 FPS (512 SPF)
Bit depth : 24 bits
Compression mode : Lossless
Stream size : 3.55 GiB (11%)
Title : Original
Language : English
Default : No
Forced : No

Text #1
ID : 4
Format : UTF-8
Codec ID : S_TEXT/UTF8
Codec ID/Info : UTF-8 Plain Text
Duration : 1 h 52 min
Bit rate : 3 b/s
Count of elements : 39
Stream size : 2.66 KiB (0%)
Title : Forced
Language : Russian
Default : Yes
Forced : Yes

Text #2
ID : 5
Format : UTF-8
Codec ID : S_TEXT/UTF8
Codec ID/Info : UTF-8 Plain Text
Duration : 1 h 52 min
Bit rate : 33 b/s
Count of elements : 915
Stream size : 28.0 KiB (0%)
Title : Full
Language : English
Default : No
Forced : No

Menu
00:00:00.000 : en:Chapter 1
00:06:37.938 : en:Chapter 2
00:15:50.866 : en:Chapter 3
00:24:23.378 : en:Chapter 4
00:36:02.826 : en:Chapter 5
00:48:46.965 : en:Chapter 6
01:00:38.217 : en:Chapter 7
01:15:28.356 : en:Chapter 8
01:27:47.094 : en:Chapter 9
01:37:14.494 : en:Chapter 10
01:46:32.468 : en:Chapter 11
01:55:33.259 : en:Chapter 12


Релиз:

Не забывайте говорить Спасибо. Не уходите с раздачи!   
Торрент: Зарегистрирован [11 июн 2019, 18:06]
Статус:
Проверен
 
.torrent скачан: 609 раз
Хэш: a37b552576efec430d32d7819f004983e362fb68
Размер: 33.84 ГБ (36 332 237 475 байт)
   Стать Автором раздачи
   
Ничто так не успокаивает, как инструктаж по технике безопасности.
Цитата

Вернуться в Зарубежное кино (HD Video)

Кто сейчас на конференции

Сейчас эту тему просматривают: нет зарегистрированных пользователей и гости: 1