Дэдвуд / Deadwood (2019) WEB-DL 1080p | Amedia

 Статистика раздачи 
Размер: 8.07 ГБ   |  Зарегистрирован: 11 июн 2019, 18:42   |   .torrent скачан: 1078 раз
Сидеров: 285  [ 0 байт/сек ]     Личеров: 94  [ 0 байт/сек ]  
  
Аватара пользователя
 
Раздал: 2.59 ТБ
Скачал: 50.54 ГБ
Ратио: 52.410
Сообщения: 210752
Стаж: 3 года 1 месяц 18 дней
СообщениеДобавлено: 11 июн 2019, 18:42


Информация о фильме
Название: Дэдвуд
Оригинальное название: Deadwood
Год выхода: 2019
Жанр: вестерн
Режиссер: Даниэль Минахан
В ролях: Тимоти Олифант, Иэн Макшейн, Молли Паркер, Паула Малкомсон, У. Эрл Браун, Дэйтон Калли, Ким Диккенс, Брэд Дуриф, Анна Ганн, Джон Хоукс

О фильме:
В 1889 году поселение Дэдвуд, наконец, получило статус города, но там по-прежнему царит атмосфера беззакония.



Страна: США
Продолжительность: 01:50:00
Перевод: Профессиональный (многоголосый закадровый) Greb&Creative по заказу Amedia

Файл
Формат: MKV
Качество: WEB-DL 1080p | AMAZON
Видео: 1920x1080 at 23.976 fps, MPEG-4 AVC, ~9469 kbps avg
Аудио#1: Russian: 48 kHz, AC3, 3/2 (L,C,R,l,r) + LFE ch, ~384.00 kbps avg
Аудио#2: English: 48 kHz, E-AC3, 3/2 (L,C,R,l,r) + LFE ch, ~640.00 kbps avg
Cубтитры: русские, английские (SDH)

Реклама отсутствует
Релиз: EniaHD

Выдающийся телевестерн «Дэдвуд», закрытый после третьего сезона, возвращается в полнометражной версии, чтобы наконец довести историю до финала. Исполнитель главной роли Иэн Макшейн вновь сыграл Эла Сверенджена. За режиссуру отвечал Даниэль Минахан («Игра престолов»). Продолжение стало возможным благодаря бессменному шоураннеру Дэвиду Милчу. Он уверен, фильм понравится не только фанатам, но и новичкам. По сюжету герои вестерна встречаются через десять лет после событий третьего сезона, чтобы отпраздновать признание родной Южной Дакоты официальным штатом. Новые времена диктуют свои правила, и в гонке за неизбежными изменениями возродится былое соперничество, а крепкие союзы дадут трещину. Воссоединится практически и вся старая актерская команда: Тимоти Олифант, Молли Паркер, Пола Малкомсон, Джон Хоукс, Анна Ганн, Дэйтон Калли, Брэд Дуриф, Робин Вайгерт, Уильям Сэндерсон, Ким Диккенс и Джеральд Макрейни. К ним примкнул Джейд Петтиджон.
General
Unique ID : 333385301804509249481399501714516147444 (0xFACFAC6F808DF6B10A905FBD5E68FCF4)
Complete name : Deadwood.The.Movie.1080p.AMZN.WEB-DL.DDP5.1.H.264-EniaHD.mkv
Format : Matroska
Format version : Version 4 / Version 2
File size : 8.07 GiB
Duration : 1 h 50 min
Overall bit rate : 10.5 Mb/s
Movie name : Deadwood: The Movie (2019) - EniaHD
Encoded date : UTC 2019-06-01 12:52:52
Writing application : mkvmerge v34.0.0 ('Sight and Seen') 64-bit
Writing library : libebml v1.3.7 + libmatroska v1.5.0

Video
ID : 1
Format : AVC
Format/Info : Advanced Video Codec
Format profile : High@L4
Format settings : CABAC / 4 Ref Frames
Format settings, CABAC : Yes
Format settings, ReFrames : 4 frames
Codec ID : V_MPEG4/ISO/AVC
Duration : 1 h 50 min
Bit rate mode : Constant
Bit rate : 9 469 kb/s
Nominal bit rate : 10 000 kb/s
Width : 1 920 pixels
Height : 1 080 pixels
Display aspect ratio : 16:9
Frame rate mode : Constant
Frame rate : 23.976 (24000/1001) FPS
Color space : YUV
Chroma subsampling : 4:2:0
Bit depth : 8 bits
Scan type : Progressive
Bits/(Pixel*Frame) : 0.190
Stream size : 7.28 GiB (90%)
Default : Yes
Forced : No
Color range : Limited
Color primaries : BT.709
Transfer characteristics : BT.709
Matrix coefficients : BT.709

Audio #1
ID : 2
Format : AC-3
Format/Info : Audio Coding 3
Codec ID : A_AC3
Duration : 1 h 50 min
Bit rate mode : Constant
Bit rate : 384 kb/s
Channel(s) : 6 channels
Channel positions : Front: L C R, Side: L R, LFE
Sampling rate : 48.0 kHz
Frame rate : 31.250 FPS (1536 SPF)
Bit depth : 16 bits
Compression mode : Lossy
Stream size : 302 MiB (4%)
Title : Greb&Creative
Language : Russian
Service kind : Complete Main
Default : Yes
Forced : No

Audio #2
ID : 3
Format : E-AC-3
Format/Info : Enhanced Audio Coding 3
Codec ID : A_EAC3
Duration : 1 h 50 min
Bit rate mode : Constant
Bit rate : 640 kb/s
Channel(s) : 6 channels
Channel positions : Front: L C R, Side: L R, LFE
Sampling rate : 48.0 kHz
Frame rate : 187.500 FPS (256 SPF)
Compression mode : Lossy
Stream size : 504 MiB (6%)
Title : Original
Language : English
Service kind : Complete Main
Default : No
Forced : No

Text #1
ID : 4
Format : UTF-8
Codec ID : S_TEXT/UTF8
Codec ID/Info : UTF-8 Plain Text
Duration : 1 h 47 min
Bit rate : 79 b/s
Count of elements : 1285
Stream size : 62.4 KiB (0%)
Language : Russian
Default : No
Forced : No

Text #2
ID : 5
Format : UTF-8
Codec ID : S_TEXT/UTF8
Codec ID/Info : UTF-8 Plain Text
Duration : 1 h 49 min
Bit rate : 63 b/s
Count of elements : 1904
Stream size : 50.8 KiB (0%)
Title : SDH
Language : English
Default : No
Forced : No
Не забывайте говорить Спасибо. Не уходите с раздачи!   
Торрент: Зарегистрирован [11 июн 2019, 18:42]
Статус:
Проверен
 
.torrent скачан: 1078 раз
Хэш: 49df9b833fb4b444ce6411807cccf8516f32d97a
Размер: 8.07 ГБ (8 667 971 260 байт)
   Стать Автором раздачи
   
Ничто так не успокаивает, как инструктаж по технике безопасности.
Цитата
  • Похожие торренты
    Ответы
    Просмотры
    Последнее сообщение

Вернуться в Зарубежное кино (HD Video)

Кто сейчас на конференции

Сейчас эту тему просматривают: нет зарегистрированных пользователей и гости: 1