Кирпич / Brick (2005) BDRip 720p | A

 Статистика раздачи 
Размер: 4.31 ГБ   |  Зарегистрирован: 11 июн 2019, 19:06   |   .torrent скачан: 448 раз
Сидеров: 49  [ 0 байт/сек ]     Личеров: 9  [ 0 байт/сек ]  
  
Аватара пользователя
 
Раздал: 2.59 ТБ
Скачал: 50.54 ГБ
Ратио: 52.409
Сообщения: 210752
Стаж: 3 года 1 месяц 18 дней
СообщениеДобавлено: 11 июн 2019, 19:06


Информация о фильме
Название: Кирпич
Оригинальное название: Brick
Год выхода: 2005
Жанр: детектив, драма
Режиссер: Райан Джонсон
В ролях: Джозеф Гордон-Левитт, Нора Зеетнер, Лукас Хаас, Ной Флайсс, Мэтью О’Лири, Эмили де Рэвин, Ноа Сеган, Ричард Раундтри, Миган Гуд, Брайан Дж. Уайт

О фильме:
Захватывающий фильм с участием Джозефа Гордона-Левитта, находившегося на заре своей карьеры. Детективная драма «Кирпич» стала дебютной полнометражной лентой в фильмографии талантливого режиссера Райана Джонсона, который впоследствии снял такие успешные картины, как «Братья Блум» и «Петля времени». В центре повествования – несколько дней из жизни калифорнийских школьников, запутавшихся в расследовании загадочного дела. Совершенно неожиданно старшеклассник Брэндан Фрай получает послание от белокурой девушки Эмили, с которой он когда-то встречался. Это вдвойне странно, учитывая, что девушка давно не попадалась ему на глаза. В записке она просит Брэндана прийти ночью к телефонной будке на окраине. Герой направляется в условленное место, где его, однако, ждет не Эмили, а всего лишь телефонный звонок с набором бессвязных слов и предложений. Пытаясь собрать воедино разрозненный текст, парнишка обращается за помощью к другу по прозвищу Мозг, после чего ребята вместе начинают расследование.

Страна: США
Студия: Bergman Lustig Productions
Продолжительность: 01:45:20
Перевод: Авторский (одноголосый, закадровый) М.Яроцкий (kyberpunk)

Файл
Кодек: x264
Качество: BDRip 720p
Видео: 1280x720 (16:9), 25,000fps, MPEG-4 AVC, ~4 957 kb/s, 0.215 bit/pixel
Звук:
Audio 1: Dolby AC3 48000Hz 6ch 448kbps [A: AVO - М.Яроцкий [rus] (ac3, 48000 Hz, 5.1, 448 kb/s)]
Audio 2: Dolby AC3 48000Hz 6ch 448kbps [A: Original [eng] (ac3, 48000 Hz, 5.1, 448 kb/s)]
Субтитры: Русские, Английские

ЦитатаКто-то писал:
Перевод Михаила Яроцкого доступен благодаря: iVov4ik, mestereo2110, iNstIGGAtor, marshall cogburn, Mednik, stimco, petrena, СэМ, naromdvd, vupen, miklob. Работа со звуком Переводман

General
Unique ID : 230090236718832158686441958822570705983 (0xAD19C486BA82B9BF015CE9B40565443F)
Complete name : Кирпич - Brick (2005) BDRip 720p.mkv
Format : Matroska
Format version : Version 4 / Version 2
File size : 4.31 GiB
Duration : 1 h 45 min
Overall bit rate : 5 863 kb/s
Movie name : Brick (2005)
Encoded date : UTC 2019-06-02 19:22:06
Writing application : mkvmerge v34.0.0 ('Sight and Seen') 64-bit
Writing library : libebml v1.3.7 + libmatroska v1.5.0

Video
ID : 1
Format : AVC
Format/Info : Advanced Video Codec
Format profile : High@L4.1
Format settings, CABAC : Yes
Format settings, RefFrames : 9 frames
Codec ID : V_MPEG4/ISO/AVC
Duration : 1 h 45 min
Bit rate : 4 957 kb/s
Width : 1 280 pixels
Height : 720 pixels
Display aspect ratio : 16:9
Frame rate mode : Constant
Frame rate : 25.000 FPS
Color space : YUV
Chroma subsampling : 4:2:0
Bit depth : 8 bits
Scan type : Progressive
Bits/(Pixel*Frame) : 0.215
Stream size : 3.64 GiB (84%)
Writing library : x264 core 157 r2969 d4099dd
Encoding settings : cabac=1 / ref=9 / deblock=1:-3:-3 / analyse=0x3:0x113 / me=umh / subme=11 / psy=1 / psy_rd=1.00:0.00 / mixed_ref=1 / me_range=32 / chroma_me=1 / trellis=2 / 8x8dct=1 / cqm=0 / deadzone=21,11 / fast_pskip=1 / chroma_qp_offset=-2 / threads=6 / lookahead_threads=1 / sliced_threads=0 / nr=0 / decimate=1 / interlaced=0 / bluray_compat=0 / constrained_intra=0 / bframes=13 / b_pyramid=2 / b_adapt=2 / b_bias=0 / direct=1 / weightb=1 / open_gop=0 / weightp=2 / keyint=250 / keyint_min=25 / scenecut=40 / intra_refresh=0 / rc_lookahead=60 / rc=2pass / mbtree=1 / bitrate=4957 / ratetol=1.0 / qcomp=0.60 / qpmin=0 / qpmax=69 / qpstep=4 / cplxblur=20.0 / qblur=0.5 / vbv_maxrate=50000 / vbv_bufsize=62500 / nal_hrd=none / filler=0 / ip_ratio=1.40 / aq=1:0.90
Language : English
Default : Yes
Forced : No

Audio #1
ID : 2
Format : AC-3
Format/Info : Audio Coding 3
Format settings, Endianness : Big
Codec ID : A_AC3
Duration : 1 h 45 min
Bit rate mode : Constant
Bit rate : 448 kb/s
Channel(s) : 6 channels
Channel positions : Front: L C R, Side: L R, LFE
Sampling rate : 48.0 kHz
Frame rate : 31.250 FPS (1536 SPF)
Bit depth : 16 bits
Compression mode : Lossy
Stream size : 338 MiB (8%)
Title : AVO - М.Яроцкий
Language : Russian
Service kind : Complete Main
Default : Yes
Forced : No

Audio #2
ID : 3
Format : AC-3
Format/Info : Audio Coding 3
Format settings, Endianness : Big
Codec ID : A_AC3
Duration : 1 h 45 min
Bit rate mode : Constant
Bit rate : 448 kb/s
Channel(s) : 6 channels
Channel positions : Front: L C R, Side: L R, LFE
Sampling rate : 48.0 kHz
Frame rate : 31.250 FPS (1536 SPF)
Bit depth : 16 bits
Compression mode : Lossy
Stream size : 338 MiB (8%)
Title : Original
Language : English
Service kind : Complete Main
Default : No
Forced : No

Text #1
ID : 4
Format : PGS
Muxing mode : zlib
Codec ID : S_HDMV/PGS
Codec ID/Info : Picture based subtitle format used on BDs/HD-DVDs
Duration : 1 h 41 min
Bit rate : 20.2 kb/s
Count of elements : 2090
Stream size : 14.7 MiB (0%)
Language : Russian
Default : No
Forced : No

Text #2
ID : 5
Format : PGS
Muxing mode : zlib
Codec ID : S_HDMV/PGS
Codec ID/Info : Picture based subtitle format used on BDs/HD-DVDs
Duration : 1 h 38 min
Bit rate : 27.1 kb/s
Count of elements : 2442
Stream size : 19.2 MiB (0%)
Language : English
Default : No
Forced : No

Не забывайте говорить Спасибо. Не уходите с раздачи!   
Торрент: Зарегистрирован [11 июн 2019, 19:06]
Статус:
Проверен
 
.torrent скачан: 448 раз
Хэш: c3c621be55267f38efe7f51b1c816bc96968b46c
Размер: 4.31 ГБ (4 632 043 101 байт)
   Стать Автором раздачи
   
Ничто так не успокаивает, как инструктаж по технике безопасности.
Цитата

Вернуться в Зарубежное кино (HD Video)

Кто сейчас на конференции

Сейчас эту тему просматривают: нет зарегистрированных пользователей и гости: 1