Чемпионат мира 2018 / Финал / Франция - Хорватия / France - Croatia [15.07.2018, Футбол, WEB-DL UHD/2160p/4K/HDR/50fps, MKV/H.265/HEVC/50fps, EN]

 Статистика раздачи 
Размер: 27.86 ГБ   |  Зарегистрирован: 21 июл 2018, 13:13   |   .torrent скачан: 0 раз
Сидеров: 6  [ 0 байт/сек ]     Личеров: 1  [ 0 байт/сек ]  
  
Аватара пользователя
 
Раздал: 256.39 ГБ
Скачал: 432.89 ГБ
Ратио: 0.672
Сообщения: 213355
Стаж: 8 лет 6 месяцев 15 дней

Чемпионат мира 2018
Финал

Франция - Хорватия

Вид спорта: Футбол
Дата
: 15.07.2018
Язык комментариев: Английский
Описание: 15 июля 2018 года, воскресенье. 18:00 МСК.
Стадион: Лужники (Москва, Россия) , вместимость: 84745
Главный судья: Нестор Питана (Корпус, Мисьонес, Аргентина)
Ассистент: Эрнан Майдана (Буэнос-Айрес, Аргентина)
Ассистент: Хуан Пабло Белатти (Аргентина)
Резервный: Бьорн Куйперс (Олдензал, Нидерланды)
Автор записи: ??
Сэмпл: 00:01:22 (150Mb)
Качество: WEB-DL 2160p (4K UltraHD, HDR)
Формат видео: MKV
Видео: Н.265/HEVC, 3840х2160, 50,000 fps, ~18.0 Мбит/с
Аудио: AAC, stereo, 48.0 kHz, 128kbps
1 вр [Франция] Уго Льорис
2 зщ [Франция] Бенжамен Павар
21 зщ [Франция] Лукас-Франсуа Эрнандес
4 зщ [Франция] Рафаэль Варан
5 зщ [Франция] Самуэль Юмтити
6 пз [Франция] Поль Погба
13 пз [Франция] Н'Голо Канте
14 пз [Франция] Блез Матюиди
10 нп [Франция] Килиан Мбаппе
9 нп [Франция] Оливье Жиру
7 нп [Франция] Антуан Гризманн
23 вр [Хорватия] Даниэль Субашич
2 зщ [Хорватия] Шиме Врсалько
3 зщ [Хорватия] Иван Стринич
6 зщ [Хорватия] Деян Ловрен
21 зщ [Хорватия] Домагой Вида
11 пз [Хорватия] Марсело Брозович
10 пз [Хорватия] Лука Модрич
7 пз [Хорватия] Иван Ракитич
4 пз [Хорватия] Иван Перишич
17 нп [Хорватия] Марио Манджукич
18 нп [Хорватия] Анте Ребич
03:39:56
Для нормального просмотра видео на ПК необходимо установить madVR.
General
Unique ID : 153445059296532939597980965480336315700 (0x737071860DBDC554557DD6D2B571D534)
Complete name : FIFA.World.Cup.2018.Final.France.Vs.Croatia.2160p.WEBRip.x265.10bit.HDR.AAC2.0.mkv
Format : Matroska
Format version : Version 4 / Version 2
File size : 27.9 GiB
Duration : 3 h 39 min
Overall bit rate : 18.1 Mb/s
Encoded date : UTC 2018-07-21 11:09:21
Writing application : mkvmerge v24.0.0 ('Beyond The Pale') 64-bit
Writing library : libebml v1.3.6 + libmatroska v1.4.9
Video
ID : 1
Format : HEVC
Format/Info : High Efficiency Video Coding
Commercial name : HDR10
Format profile : Main 10@L5.1@Main
Codec ID : V_MPEGH/ISO/HEVC
Duration : 3 h 39 min
Bit rate : 18.0 Mb/s
Width : 3 840 pixels
Height : 2 160 pixels
Display aspect ratio : 16:9
Frame rate mode : Constant
Frame rate : 50.000 FPS
Color space : YUV
Chroma subsampling : 4:2:0
Bit depth : 10 bits
Bits/(Pixel*Frame) : 0.043
Stream size : 27.7 GiB (99%)
Default : Yes
Forced : No
Color range : Limited
Color primaries : BT.2020
Transfer characteristics : PQ
Matrix coefficients : BT.2020 non-constant
Mastering display color pri : R: x=0.000000 y=0.000000, G: x=0.000000 y=0.000000, B: x=0.000000 y=0.000000, White point: x=0.000000 y=0.000000
Mastering display luminance : min: 0.0000 cd/m2, max: 0 cd/m2
Audio
ID : 2
Format : AAC
Format/Info : Advanced Audio Codec
Format profile : LC
Codec ID : A_AAC-2
Duration : 3 h 39 min
Bit rate : 128 kb/s
Channel(s) : 2 channels
Channel positions : Front: L R
Sampling rate : 48.0 kHz
Frame rate : 46.875 FPS (1024 SPF)
Compression mode : Lossy
Stream size : 201 MiB (1%)
Default : Yes
Forced : No
4:2
Убедительная просьба оставаться на раздаче!!!
Не забывайте говорить Спасибо. Не уходите с раздачи!   
Торрент: Зарегистрирован [21 июл 2018, 13:13]
Статус:
Проверен
 
.torrent скачан: 0 раз
Хэш: 95aa038ffc530dcbe00adcc63fb874485ece4834
Размер: 27.86 ГБ (29 916 120 587 байт)
   Стать Автором раздачи
   
Цитата
  • Похожие торренты
    Ответы
    Просмотры
    Последнее сообщение

Вернуться в Чемпионат Мира 2018 (плей-офф финального турнира)

Кто сейчас на конференции

Сейчас эту тему просматривают: нет зарегистрированных пользователей и гости: 1