Теория большого взрыва / The Big Bang Theory / Сезон: 12 / Серии: 1-17 из 24 (Марк Сендроуски, Питер Чакос, Энтони Джозеф Рич) [2018, США, Ситком, комедия, WEB-DL 720p] MVO (Jaskier) + Original + Eng Sub

 Статистика раздачи 
Размер: 11.19 ГБ   |  Зарегистрирован: 27 сен 2018, 12:11   |   .torrent скачан: 3 раз
Сидеров: 18  [ 0 байт/сек ]     Личеров: 7  [ 0 байт/сек ]  
  
Аватара пользователя
Главный редактор
Главный редактор
 
Раздал: 83.18 ТБ
Скачал: 3.76 ТБ
Ратио: 22.543
Сообщения: 213816
Стаж: 8 лет 8 месяцев 24 дня
Откуда: Санкт-Петербург

Теория большого взрыва | The Big Bang Theory

Год выпуска: 2018
Страна: США
Жанр: Ситком, комедия
Продолжительность: ~ 00:21:00
Перевод: Профессиональный (многоголосый закадровый) | Jaskier
Режиссёр: Марк Сендроуски, Питер Чакос, Энтони Джозеф Рич
В ролях: Джонни Галэки, Джим Парсонс, Кейли Куоко, Саймон Хелберг, Кунал Найяр, Майем Биалик, Мелисса Рауш, Кэрол Энн Сьюзи, Кевин Суссман, Арти Манн, Брайан Джордж, Элис Эмтер, Сара Гилберт, Джон Росс Боуи, Уил Уитон, Лори Меткаф, Верни Уотсон-Джонсон, Кристин Барански, Джошуа Малина, Кейси Сэндер, Кэти Леклерк
Описание: Сюжет описывает житейские ситуации четырёх главных героев, друзей-физиков, работающих в Калтехе. Занятые наукой, все они очень наивны в своих представлениях. Особенную проблему для них представляет общение с противоположным полом и налаживание личной жизни. Четверо друзей живут не горюют до тех пор, пока в квартиру напротив не заселяется очаровательная блондинка Пэнни, которая впоследствии станет главным локомотивом, который выведет парней на новый уровень их жизни, станет обязательным звеном в этой четверке и добавит в эту компанию больше ярких жизненных красок...

| Ссылка на предыдущие и альтернативные раздачи |
Качество: WEB-DL 720p
Формат: MKV
Видео: 1280x720 (16:9) | X264 | ~3700 kbps | 24 fps
Аудио 1: AC3 | 48 KHz | 5.1 (Front: L С R Side: L R) + LFE | ~384 kbps [RUS]
Аудио 2: AC3 | 48 KHz | 5.1 (Front: L С R Side: L R) + LFE | ~384 kbps [ENG]
Субтитры: английские
Реклама: Присутствует звуковая (два раза в начале и конце по 12 сек.)
Переведено и озвучено студией JASKIER
Код:
Код: Выделить всё
Общее
Уникальный идентификатор                 : 233537449136107222620942953684960466823 (0xAFB1AD3874CCB758A4EA0523A7A6D787)
Полное имя                               : H:\JASKiER\TBBT. Season 12 (WEB-DL l 720p l Jaskier)\The.Big.Bang.Theory.S12E01.720p.WEB-DL.DD5.1.H.264-Jaskier.mkv
Формат                                   : Matroska
Версия формата                           : Version 2
Размер файла                             : 688 Мбайт
Продолжительность                        : 20 м. 42 с.
Общий поток                              : 4643 Кбит/сек
Дата кодирования                         : UTC 2018-09-27 12:03:05
Программа кодирования                    : mkvmerge v7.8.0 ('River Man') 32bit built on Apr  3 2015 12:11:22
Библиотека кодирования                   : libebml v1.3.1 + libmatroska v1.4.2
Видео
Идентификатор                            : 1
Формат                                   : AVC
Формат/Информация                        : Advanced Video Codec
Профиль формата                          : High@L3.1
Настройки формата                        : CABAC / 5 Ref Frames
Параметр CABAC формата                   : Да
Параметр RefFrames формата               : 5 кадров
Идентификатор кодека                     : V_MPEG4/ISO/AVC
Продолжительность                        : 20 м. 42 с.
Битрейт                                  : 3527 Кбит/сек
Ширина                                   : 1280 пикселей
Высота                                   : 720 пикселей
Соотношение сторон                       : 16:9
Режим частоты кадров                     : Постоянный
Частота кадров                           : 24,000 кадра/сек
Цветовое пространство                    : YUV
Субдискретизация насыщенности            : 4:2:0
Битовая глубина                          : 8 бит
Тип развёртки                            : Прогрессивная
Бит/(Пиксели*Кадры)                      : 0.159
Размер потока                            : 522 Мбайт (76%)
Язык                                     : English
Default                                  : Да
Forced                                   : Нет
Цветовой диапазон                        : Limited
Основные цвета                           : BT.709
Характеристики трансфера                 : BT.709
Коэффициенты матрицы                     : BT.709
Аудио #1
Идентификатор                            : 2
Формат                                   : AC-3
Формат/Информация                        : Audio Coding 3
Коммерческое название                    : Dolby Digital
Идентификатор кодека                     : A_AC3
Продолжительность                        : 20 м. 42 с.
Вид битрейта                             : Постоянный
Битрейт                                  : 640 Кбит/сек
Каналы                                   : 6 каналов
Channel layout                           : L R C LFE Ls Rs
Частота                                  : 48,0 КГц
Частота кадров                           : 31,250 кадров/сек (1536 SPF)
Битовая глубина                          : 16 бит
Метод сжатия                             : С потерями
Размер потока                            : 94,8 Мбайт (14%)
Заголовок                                : Jaskier
Язык                                     : Russian
ServiceKind/String                       : Complete Main
Default                                  : Да
Forced                                   : Нет
Аудио #2
Идентификатор                            : 3
Формат                                   : AC-3
Формат/Информация                        : Audio Coding 3
Коммерческое название                    : Dolby Digital
Идентификатор кодека                     : A_AC3
Продолжительность                        : 20 м. 42 с.
Вид битрейта                             : Постоянный
Битрейт                                  : 384 Кбит/сек
Каналы                                   : 6 каналов
Channel layout                           : L R C LFE Ls Rs
Частота                                  : 48,0 КГц
Частота кадров                           : 31,250 кадров/сек (1536 SPF)
Битовая глубина                          : 16 бит
Метод сжатия                             : С потерями
Размер потока                            : 56,9 Мбайт (8%)
Язык                                     : English
ServiceKind/String                       : Complete Main
Default                                  : Нет
Forced                                   : Нет
Текст
Идентификатор                            : 4
Формат                                   : UTF-8
Идентификатор кодека                     : S_TEXT/UTF8
Идентификатор кодека/Информация          : UTF-8 Plain Text
Язык                                     : English
Default                                  : Нет
Forced                                   : Нет

Когда раздача ведётся путём добавления новых серий, при каждом добавлении создётся новый торрент. Чтобы начать докачку новой серии, пользователям необходимо сделать следующее:
(1) остановить скачивание,
(2) удалить старый торрент у себя из клиента (старые серии удалять не надо),
(3) скачать новый торрент и запустить его у себя в клиенте вместо старого, при этом указать клиенту путь в старую папку, куда и должно происходить скачивание новых серий.
Ваш клиент при этом должен произвести хеширование (проверку) старой папки (если не производит сам - помогите ему сделать это), и будет докачивать только те серии, которых у вас ещё нет. Старые серии при этом не удаляются, а продолжают раздаваться!
Eсли вы уже удалили старые серии, то предотвратить повторную закачку старых серий можно, отжав галочку в соответсвующих местах при запуске нового торрента. По возможности, желательно не удалять старые серии как можно дольше, чтобы релизёр не столько продолжал раздавать старые серии, а смог сконцентрироваться на новых.

Не забывайте говорить Спасибо. Не уходите с раздачи!   
Торрент: Зарегистрирован [27 сен 2018, 12:11]
Статус:
Проверен
 
.torrent скачан: 3 раз
Хэш: 3ef89ed2f7a6ca5398c3a26dc7c2862f41804f4d
Размер: 11.19 ГБ (12 018 772 199 байт)
   Стать Автором раздачи
   
Цитата
  • Похожие торренты
    Ответы
    Просмотры
    Последнее сообщение

Вернуться в Теория большого взрыва / The Big Bang Theory

Кто сейчас на конференции

Сейчас эту тему просматривают: нет зарегистрированных пользователей и гости: 1