Теория Большого Взрыва / The Big Bang Theory / Сезон: 12 / Серии: 1-17 из 24 (Марк Сендроуски) [2018, США, Ситком, комедия, WEBRip 720p] MVO (Baibako) + Original + Sub (Rus, Eng)

 Статистика раздачи 
Размер: 12.06 ГБ   |  Зарегистрирован: 26 сен 2018, 20:13   |   .torrent скачан: 14 раз
Сидеров: 37  [ 0 байт/сек ]     Личеров: 14  [ 0 байт/сек ]  
  
Аватара пользователя
Главный редактор
Главный редактор
 
Раздал: 83.18 ТБ
Скачал: 3.76 ТБ
Ратио: 22.543
Сообщения: 213816
Стаж: 8 лет 8 месяцев 24 дня
Откуда: Санкт-Петербург

Теория Большого Взрыва / The Big Bang Theory

«Smart Is The New Sexy»
Страна: США
Год выпуска: 2018
Жанр: Ситком, комедия
Продолжительность: ~ 00:20:00 серия
Перевод: Любительский (многоголосый закадровый) |Baibako|
Премьера (мир): 24 сентября 2007
Премьера (РФ): 10 апреля 2010
Релиз на DVD 13 июня 2013, «CP Дистрибуция»
Режиссер: Марк Сендроуски, Энтони Джозеф Рич, Питер Чакос
В главных ролях: Джонни Галэки, Джим Парсонс, Кейли Куоко, Саймон Хелберг, Кунал Найяр, Майем Биалик, Мелисса Рауш, Кэрол Энн Сьюзи, Кевин Суссман, Арти Манн, Брайан Джордж, Элис Эмтер, Сара Гилберт, Джон Росс Боуи, Уил Уитон, Лори Меткаф, Верни Уотсон-Джонсон, Кристин Барански, Джошуа Малина, Кейси Сэндер, Кэти Леклерк
Описание фильма:
Леонард и Пенни стали супругами и переживают новый период отношений. Они узнают о помолвке Шелдон и Эми, которые устроили сложные испытания для определения лучшего друга для молодожёнов. Парочка остановилась на Леонарде, который знает, что угодить другу невозможно. Шелдон скрывает от друзей, что продолжает работать с военными и строит ракету. Леонард занимается исследованиями тёмной материи. События развиваются с необычайной скоростью. Компания Пенни хочет заключить контракт с Биллом Гейтсом, и приятели готовятся к встрече с компьютерным гением. Шелдон отправляется в лесную хижину к учёному Уолкотту, а потом уезжает в Вегас подзаработать денег. Идут дружные приготовления к свадьбе. Только у Эми с Шелдоном совсем другие планы.

Предыдущие и альтернативные раздачи[/spoiler]

Качество видео: WEBRip 720p
Формат: MKV
Видео: AVC at 3633 kbps, 1280 x 720 (1.778), 24.000 fps
Аудио Rus: AC-3, 48 kHz, 6 ch, 640 kbps |Baibako|
Аудио Eng: AC-3, 48 kHz, 6 ch, 640 kbps |Original|
Субтитры: русские, английские (SDH)
Реклама: Отсутствует[/spoiler]

Код: Выделить всё
Общее
Уникальный идентификатор                 : 339152075115896614271064370940122467199 (0xFF26504FBC75D0DB9627209A0A778B7F)
Полное имя                               : E:\_Сериалы\_Сериалы\Теория большого взрыва\The.Big.Bang.Theory.s12.720p.WEBRip.BaibaKo\The.Big.Bang.Theory.S12E01.720p.WEBRip.BaibaKo.mkv
Формат                                   : Matroska
Версия формата                           : Version 4 / Version 2
Размер файла                             : 725 Мбайт
Продолжительность                        : 20 м. 37 с.
Общий поток                              : 4915 Кбит/сек
Дата кодирования                         : UTC 2018-09-26 19:15:15
Программа кодирования                    : mkvmerge v25.0.0 ('Prog Noir') 64-bit
Библиотека кодирования                   : libebml v1.3.6 + libmatroska v1.4.9
Видео
Идентификатор                            : 1
Формат                                   : AVC
Формат/Информация                        : Advanced Video Codec
Профиль формата                          : High@L3.1
Настройки формата                        : CABAC / 5 Ref Frames
Параметр CABAC формата                   : Да
Параметр RefFrames формата               : 5 кадров
Идентификатор кодека                     : V_MPEG4/ISO/AVC
Продолжительность                        : 20 м. 37 с.
Битрейт                                  : 3633 Кбит/сек
Ширина                                   : 1280 пикселей
Высота                                   : 720 пикселей
Соотношение сторон                       : 16:9
Режим частоты кадров                     : Постоянный
Частота кадров                           : 24,000 кадра/сек
Цветовое пространство                    : YUV
Субдискретизация насыщенности            : 4:2:0
Битовая глубина                          : 8 бит
Тип развёртки                            : Прогрессивная
Бит/(Пиксели*Кадры)                      : 0.164
Размер потока                            : 536 Мбайт (74%)
Default                                  : Да
Forced                                   : Нет
Цветовой диапазон                        : Limited
Основные цвета                           : BT.709
Характеристики трансфера                 : BT.709
Коэффициенты матрицы                     : BT.709
Аудио #1
Идентификатор                            : 2
Формат                                   : AC-3
Формат/Информация                        : Audio Coding 3
Идентификатор кодека                     : A_AC3
Продолжительность                        : 20 м. 37 с.
Вид битрейта                             : Постоянный
Битрейт                                  : 640 Кбит/сек
Каналы                                   : 6 каналов
Расположение каналов                     : Front: L C R, Side: L R, LFE
Частота                                  : 48,0 КГц
Частота кадров                           : 31,250 кадров/сек (1536 SPF)
Битовая глубина                          : 16 бит
Метод сжатия                             : С потерями
Размер потока                            : 94,4 Мбайт (13%)
Язык                                     : Russian
ServiceKind/String                       : Complete Main
Default                                  : Да
Forced                                   : Нет
Аудио #2
Идентификатор                            : 3
Формат                                   : AC-3
Формат/Информация                        : Audio Coding 3
Идентификатор кодека                     : A_AC3
Продолжительность                        : 20 м. 37 с.
Вид битрейта                             : Постоянный
Битрейт                                  : 640 Кбит/сек
Каналы                                   : 6 каналов
Расположение каналов                     : Front: L C R, Side: L R, LFE
Частота                                  : 48,0 КГц
Частота кадров                           : 31,250 кадров/сек (1536 SPF)
Битовая глубина                          : 16 бит
Метод сжатия                             : С потерями
Размер потока                            : 94,4 Мбайт (13%)
Язык                                     : English
ServiceKind/String                       : Complete Main
Default                                  : Нет
Forced                                   : Нет
Текст
Идентификатор                            : 4
Формат                                   : UTF-8
Идентификатор кодека                     : S_TEXT/UTF8
Идентификатор кодека/Информация          : UTF-8 Plain Text
Продолжительность                        : 20 м. 13 с.
Битрейт                                  : 93 бит/сек
ElementCount                             : 405
Размер потока                            : 13,8 Кбайт (0%)
Язык                                     : English
Default                                  : Да
Forced                                   : Нет


Раздача ведётся путём добавления новых серий; при каждом добавлении создаётся новый торрент.
Чтобы начать докачку новой серии, пользователям необходимо сделать следующее:
1. остановить скачивание,
2. удалить старый торрент у себя из клиента (старые серии удалять не надо),
3. скачать новый торрент и запустить его у себя в клиенте вместо старого, при этом указать клиенту путь в старую папку, куда и должно происходить скачивание новых серий.
Ваш клиент при этом должен произвести хеширование (проверку) старой папки (если не производит сам - помогите ему сделать это), и будет докачивать только те серии которых у вас ещё нет. Старые серии при этом не удаляются, а продолжают раздаваться!
Eсли вы уже удалили старые серии, то предотвратить повторную закачку старых серий можно, отжав галочку в соответствующих местах при запуске нового торрента. По возможности, желательно не удалять старые серии как можно дольше, чтобы релизёр не столько продолжал раздавать старые серии, а смог сконцентрироваться на новых.
Совет для тех, кто не хочет ждать перехеширования:
Создайте ещё одну папку рядом с папкой сериала (рядом, а не в ней!!!). Каждую новую серию после удачной загрузки копируйте в новую папку так чтобы ваша основная папка всегда была пуста. Когда ваш новый торрент предложит вам закачать все файлы, выберете только последнюю. Для сидирования же укажите адрес новой папки.
Как закачать отдельный файл из торрента или докачать ранее пропущенные файлы торрента!

1. Открыть торрент
2. Снять галки с тех файлов торрента, которые мы не хотим закачивать. Оставляем только на нужных нам файлах (файле).
3. Нажать О.К.
В клиенте utorrent
Инструкция
1) Открыть торрент

2) Снять галки с тех файлов торрента, которые мы не хотим закачивать:
* либо вручную, снимая с каждого файла галку( скрин №1)
* либо, нажав кнопку "Снять метки (Select None)", сняв сразу со всех файлов(скрин №2)
№1

№2

Оставляем только на нужных нам файлах (файле).

3)Нажать О.К

Приятного просмотра!!!
Не забывайте говорить Спасибо. Не уходите с раздачи!   
Торрент: Зарегистрирован [26 сен 2018, 20:13]
Статус:
Проверен
 
.torrent скачан: 14 раз
Хэш: 9a96a21ecafc1c48828065b9315b702571079359
Размер: 12.06 ГБ (12 948 129 121 байт)
   Стать Автором раздачи
   
Цитата
  • Похожие торренты
    Ответы
    Просмотры
    Последнее сообщение

Вернуться в Теория большого взрыва / The Big Bang Theory

Кто сейчас на конференции

Сейчас эту тему просматривают: нет зарегистрированных пользователей и гости: 1