Теория Большого Взрыва / The Big Bang Theory / Сезон: 1 / Серии: 1-17 из 17 (Джеймс Барроус) [2007, США, Ситком, BDRip 1080p 10bit] VO (Кураж-Бамбей по заказу Paramount Comedy (2012)) + VO (Кураж-Бамбей (1 версия)) + MVO (СТС) + Original

 Статистика раздачи 
Размер: 23.08 ГБ   |  Зарегистрирован: 16 окт 2015, 16:42   |   .torrent скачан: 0 раз
Сидеров: 0  [ 0 байт/сек ]     Личеров: 0  [ 0 байт/сек ]  
  
Аватара пользователя
Главный редактор
Главный редактор
 
Раздал: 83.18 ТБ
Скачал: 3.76 ТБ
Ратио: 22.543
Сообщения: 213816
Стаж: 8 лет 8 месяцев 24 дня
Откуда: Санкт-Петербург

Теория Большого Взрыва / The Big Bang Theory
Год выпуска: 2007
Страна: США
Жанр: Ситком
Продолжительность: ~00:22:00 (одна серия)
Перевод: Профессиональный (одноголосый закадровый) Кураж-Бамбей по заказу Paramount Comedy (2012)
Перевод 2: Профессиональный (одноголосый закадровый) Кураж-Бамбей
Перевод 3: Профессиональный (многоголосый закадровый) Новамедиа по заказу СТС
Перевод 4: Профессиональный (многоголосый закадровый) HTB
Оригинал: English AC3 6ch 640Kbps
Режиссёр: Джеймс Барроус
В ролях: Джонни Галэки (Леонард), Джим Парсонс (Шелдон), Кейли Куоко (Пэнни), Саймон Хелберг (Говард), Кунал Нэйэр (Радж)
Описание:
Два блестящих физика, Леонард и Шелдон, «великие умы», которые понимают как «работает вселенная». Но их гениальность ничуть не помогает им общаться с людьми, особенно с женщинами. Всё начинает меняться, когда напротив них поселяется красавица Пенни. Когда Леонард и Шелдон встречают Пенни, Леонард сразу же начинает интересоваться ею. Он видит в общении с Пенни огромную перспективу, вплоть до любви, однако Шелдон понимает, что мечтам его друга не суждено сбыться. Стоит также отметить пару странных друзей этих физиков: Воловец, который любит употреблять фразы на разных языках, включая русский, и Раджеш Кутрапали, теряющий дар речи при виде женщин.
Доп. информация:
Мои релизы других сезонов
1 сезон BDRemux 1080p
2 сезон BDRemux 1080p
3 сезон BDRemux 1080p
4 сезон BDRemux 1080p
5 сезон BDRemux 1080p
6 сезон BDRemux 1080p
7 сезон BDRemux 1080p
8 сезон BDRemux 1080p
1 сезон BDRip 1080p 10bit
2 сезон BDRip 1080p 10bit
3 сезон BDRip 1080p 10bit
4 сезон BDRip 1080p 10bit
5 сезон BDRip 1080p 10bit
6 сезон BDRip 1080p 10bit
7 сезон BDRip 1080p 10bit
8 сезон BDRip 1080p 10bit
Ссылка на предыдущие и альтернативные раздачи: https://rutracker.org/forum/tracker.php?f=2396,189,2366,842&nm=%D0%A2%D0%B5%D...%2F+The+Big+Bang
Сэмпл: http://multi-up.com/989737
Качество: BDRip 1080p
Контейнер: MKV
Видео: x264 10bit 1920x1080 23.976fps ~7650Kbps (Variable)
Аудио 1: Dolby AC3 48000Hz stereo 192kbps, Paramount Comedy (Kuraj-Bambey V2)
Аудио 2: Dolby AC3 48000Hz stereo 192kbps, Kuraj-Bambey V1
Аудио 3: Dolby AC3 48000Hz stereo 192kbps, Novamedia (CTC)
Аудио 4: Dolby AC3 48000Hz stereo 192kbps, HTB
Аудио 5: Dolby AC3 48000Hz 6ch 640Kbps English
Субтитры: softsub (SRT) Eng, Rus
1x01. Pilot
1x02. The Big Bran Hypothesis
1x03. The Fuzzy Boots Corollary
1x04. The Luminous Fish Effect
1x05. The Hamburger Postulate
1x06. The Middle Earth Paradigm
1x07. The Dumpling Paradox
1x08. The Grasshopper Experiment
1x09. The Cooper-Hofstadter Polarization
1x10. The Loobenfeld Decay
1x11. The Pancake Batter Anomaly
1x12. The Jerusalem Duality
1x13. The Bat Jar Conjecture
1x14. The Nerdvana Annihilation
1x15. The Pork Chop Indeterminacy
1x16. The Peanut Reaction
1x17. The Tangerine Factor
Format : Matroska
Format version : Version 4 / Version 2
File size : 1.80 GiB
Duration : 2h 4mn
Overall bit rate : 2 072 Kbps
Encoded date : UTC 2015-10-01 15:17:20
Writing application : mkvmerge v8.3.0 ('Over the Horizon') 64bit
Writing library : libebml v1.3.1 + libmatroska v1.4.2
Attachements : cover.jpg
DURATION : 02:04:16.544000000
NUMBER_OF_FRAMES : 233017
NUMBER_OF_BYTES : 596523520
_STATISTICS_WRITING_APP : mkvmerge v8.3.0 ('Over the Horizon') 64bit
_STATISTICS_WRITING_DATE_UT : 2015-10-01 15:17:20
_STATISTICS_TAGS : BPS DURATION NUMBER_OF_FRAMES NUMBER_OF_BYTES
Video
ID : 1
Format : AVC
Format/Info : Advanced Video Codec
Format profile : High 10@L4.1
Format settings, CABAC : Yes
Format settings, ReFrames : 4 frames
Codec ID : V_MPEG4/ISO/AVC
Duration : 2h 4mn
Bit rate : 623 Kbps
Width : 1 920 pixels
Height : 1 080 pixels
Display aspect ratio : 16:9
Frame rate mode : Constant
Frame rate : 23.976 fps
Color space : YUV
Chroma subsampling : 4:2:0
Bit depth : 10 bits
Scan type : Progressive
Bits/(Pixel*Frame) : 0.013
Stream size : 554 MiB (30%)
Writing library : x264 core 148 r2597 e86f3a1
Encoding settings : cabac=1 / ref=4 / deblock=1:-2:-1 / analyse=0x3:0x133 / me=umh / subme=10 / psy=1 / psy_rd=1.00:0.20 / mixed_ref=1 / me_range=24 / chroma_me=1 / trellis=2 / 8x8dct=1 / cqm=0 / deadzone=21,11 / fast_pskip=1 / chroma_qp_offset=-3 / threads=8 / lookahead_threads=1 / sliced_threads=0 / nr=0 / decimate=1 / interlaced=0 / bluray_compat=0 / constrained_intra=0 / bframes=6 / b_pyramid=2 / b_adapt=2 / b_bias=0 / direct=3 / weightb=1 / open_gop=0 / weightp=2 / keyint=250 / keyint_min=23 / scenecut=40 / intra_refresh=0 / rc_lookahead=60 / rc=crf / mbtree=1 / crf=18.0 / qcomp=0.60 / qpmin=0 / qpmax=81 / qpstep=4 / ip_ratio=1.40 / aq=1:1.00
Language : English
Default : Yes
Forced : No
DURATION : 00:21:08.309000000
NUMBER_OF_FRAMES : 30409
NUMBER_OF_BYTES : 1212427530
_STATISTICS_WRITING_APP : mkvmerge v8.3.0 ('Over the Horizon') 64bit
_STATISTICS_WRITING_DATE_UT : 2015-10-01 15:17:20
_STATISTICS_TAGS : BPS DURATION NUMBER_OF_FRAMES NUMBER_OF_BYTES
Audio #1
ID : 2
Format : AC-3
Format/Info : Audio Coding 3
Mode extension : CM (complete main)
Format settings, Endianness : Big
Codec ID : A_AC3
Duration : 2h 4mn
Bit rate mode : Constant
Bit rate : 192 Kbps
Channel(s) : 2 channels
Channel positions : Front: L R
Sampling rate : 48.0 KHz
Bit depth : 16 bits
Compression mode : Lossy
Stream size : 171 MiB (9%)
Title : Paramount Comedy (Kuraj-Bambey v2)
Language : Russian
Default : Yes
Forced : No
Audio #2
ID : 3
Format : AC-3
Format/Info : Audio Coding 3
Mode extension : CM (complete main)
Format settings, Endianness : Big
Codec ID : A_AC3
Duration : 2h 4mn
Bit rate mode : Constant
Bit rate : 192 Kbps
Channel(s) : 2 channels
Channel positions : Front: L R
Sampling rate : 48.0 KHz
Bit depth : 16 bits
Compression mode : Lossy
Stream size : 171 MiB (9%)
Title : Kuraj-Bambey v1
Language : Russian
Default : No
Forced : No
Audio #3
ID : 4
Format : AC-3
Format/Info : Audio Coding 3
Mode extension : CM (complete main)
Format settings, Endianness : Big
Codec ID : A_AC3
Duration : 2h 4mn
Bit rate mode : Constant
Bit rate : 192 Kbps
Channel(s) : 2 channels
Channel positions : Front: L R
Sampling rate : 48.0 KHz
Bit depth : 16 bits
Compression mode : Lossy
Stream size : 171 MiB (9%)
Title : Novamedia (CTC)
Language : Russian
Default : No
Forced : No
Audio #4
ID : 5
Format : AC-3
Format/Info : Audio Coding 3
Mode extension : CM (complete main)
Format settings, Endianness : Big
Codec ID : A_AC3
Duration : 2h 4mn
Bit rate mode : Constant
Bit rate : 192 Kbps
Channel(s) : 2 channels
Channel positions : Front: L R
Sampling rate : 48.0 KHz
Bit depth : 16 bits
Compression mode : Lossy
Stream size : 171 MiB (9%)
Title : HTB
Language : Russian
Default : No
Forced : No
Audio #5
ID : 6
Format : AC-3
Format/Info : Audio Coding 3
Mode extension : CM (complete main)
Format settings, Endianness : Big
Codec ID : A_AC3
Duration : 2h 4mn
Bit rate mode : Constant
Bit rate : 640 Kbps
Channel(s) : 6 channels
Channel positions : Front: L C R, Side: L R, LFE
Sampling rate : 48.0 KHz
Bit depth : 16 bits
Compression mode : Lossy
Stream size : 569 MiB (31%)
Title : English
Language : English
Default : No
Forced : No
Text #1
ID : 7
Format : UTF-8
Codec ID : S_TEXT/UTF8
Codec ID/Info : UTF-8 Plain Text
Title : Russian
Language : Russian
Default : No
Forced : No
Text #2
ID : 8
Format : UTF-8
Codec ID : S_TEXT/UTF8
Codec ID/Info : UTF-8 Plain Text
Title : English
Language : English
Default : No
Forced : No
Menu
00:00:00.000 : en:Chapter 01
00:04:06.287 : en:Chapter 02
00:10:53.361 : en:Chapter 03
00:18:47.292 : en:Chapter 04
00:20:40.697 : en:Chapter 05
Постер

Если нашелся какой то недостаток - сразу пишите мне в ЛС,
я не имею возможно просматривать все серии целиком.
спасибо
Не забывайте говорить Спасибо. Не уходите с раздачи!   
Торрент: Зарегистрирован [16 окт 2015, 16:42]
Статус:
Проверен
 
.torrent скачан: 0 раз
Хэш: f5162946787ba2b993fc659bfc5542ed6dff36f6
Размер: 23.08 ГБ (24 783 536 087 байт)
   Стать Автором раздачи
   
Цитата
  • Похожие торренты
    Ответы
    Просмотры
    Последнее сообщение

Вернуться в Теория большого взрыва / The Big Bang Theory

Кто сейчас на конференции

Сейчас эту тему просматривают: нет зарегистрированных пользователей и гости: 1