Теория Большого Взрыва / The Big Bang Theory / Сезон: 4 / Серии: 1-24 из 24 (Марк Сендроуски, Питер Чакос) [2010, США, Ситком, BDRip 1080p 10bit] VO (Кураж-Бамбей) + VO (Кураж-Бамбей) + MVO (2х2) + Original + Rus Sub

 Статистика раздачи 
Размер: 24.85 ГБ   |  Зарегистрирован: 14 ноя 2015, 12:58   |   .torrent скачан: 0 раз
Сидеров: 0  [ 0 байт/сек ]     Личеров: 0  [ 0 байт/сек ]  
  
Аватара пользователя
Главный редактор
Главный редактор
 
Раздал: 83.18 ТБ
Скачал: 3.76 ТБ
Ратио: 22.548
Сообщения: 213311
Стаж: 8 лет 8 месяцев 21 день
Откуда: Санкт-Петербург

Теория Большого Взрыва / The Big Bang Theory
Год выпуска: 2010
Страна: США
Жанр: Ситком
Продолжительность: ~ 00:22:00
Перевод: Профессиональный (одноголосый закадровый) Кураж-Бамбей
Перевод 2: Профессиональный (одноголосый закадровый) Кураж-Бамбей
Перевод 3: Профессиональный (многоголосый закадровый) 2х2
Режиссёр: Марк Сендроуски, Питер Чакос
В ролях: Джим Парсонс / Jim Parsons (Sheldon), Джонни Галекки / Johnny Galecki (Leonard), Кейли Куоко / Kaley Cuoco (Penny), Саймон Хельберг / Simon Helberg (Howard Wolowitz), Кунал Найяр / Kunal Nayyar (Rajesh Koothrappali) и др.
Описание:
Два блестящих физика, Леонард и Шелдон, «великие умы», которые понимают как «работает вселенная». Но их гениальность ничуть не помогает им общаться с людьми, особенно с женщинами. Всё начинает меняться, когда напротив них поселяется красавица Пенни.
Когда Леонард и Шелдон встречают Пенни, Леонард сразу же начинает интересоваться ею. Он видит в общении с Пенни огромную перспективу… вплоть до любви, однако Шелдон понимает, что мечтам его друга не суждено сбыться.
Стоит также отметить пару странных друзей этих физиков: Воловиц, который любит употреблять фразы на разных языках, включая русский, и Раджеш Кутраппали, теряющий дар речи при виде женщин.
Доп. информация:
Мои релизы других сезонов
1 сезон BDRemux 1080p
2 сезон BDRemux 1080p
3 сезон BDRemux 1080p
4 сезон BDRemux 1080p
5 сезон BDRemux 1080p
6 сезон BDRemux 1080p
7 сезон BDRemux 1080p
8 сезон BDRemux 1080p
1 сезон BDRip 1080p 10bit
2 сезон BDRip 1080p 10bit
3 сезон BDRip 1080p 10bit
4 сезон BDRip 1080p 10bit
5 сезон BDRip 1080p 10bit
6 сезон BDRip 1080p 10bit
7 сезон BDRip 1080p 10bit
8 сезон BDRip 1080p 10bit
за озвучку 2х2 спасибо Tom Soyer
Ссылка на предыдущие и альтернативные раздачи: https://rutracker.org/forum/tracker.php?f=2396,189,2366,842&nm=%D0%A2%D0%B5%D...%2F+The+Big+Bang
Сэмпл: http://multi-up.com/989737 выложу когда доделаю
Качество: BDRip 1080p 10bit
Контейнер: MKV
Видео: x264 10bit 1920x1080 23.976fps ~6000Kbps (Variable)
Аудио 1: Dolby AC3 48000Hz stereo 192kbps, Kuraj-Bambey
Аудио 2: Dolby AC3 48000Hz 6ch 448Kbps, Kuraj-Bambey
Аудио 3: Dolby AC3 48000Hz stereo 192kbps, 2х2
Аудио 4: Dolby AC3 48000Hz 6ch 640Kbps, Original
Субтитры: softsub (SRT) Rus, Eng
01. The Robotic Manipulation
02. The Cruciferous Vegetable Amplification
03. The Zazzy Substitution
04. The Hot Troll Deviation
05. The Desperation Emanation
06. The Irish Pub Formulation
07. The Apology Insufficiency
08. The 21-second Excitation
09. The Boyfriend Complexity
10. The Alien Parasite Hypothesis
11. The Justice League Recombination
12. The Bus Pants Utilization
13. The Love Car Displacement
14. The Thespian Catalyst
15. The Benefactor Factor
16. The Cohabitation Formulation
17. The Toast Derivation
18. The Prestidigitation Approximation
19. The Zarnecki Incursion
20. The Herb Garden Germination
21. The Agreement Dissection
22. The Wildebeest Implementation
23. The Engagement Reaction
24. The Roommate Transmogrification
Format : Matroska
Format version : Version 4 / Version 2
File size : 996 MiB
Duration : 21mn 29s
Overall bit rate : 6 479 Kbps
Encoded date : UTC 2015-10-11 06:32:34
Writing application : mkvmerge v8.3.0 ('Over the Horizon') 64bit
Writing library : libebml v1.3.1 + libmatroska v1.4.2
Attachements : Cover.jpg
DURATION : 00:21:29.344000000
NUMBER_OF_FRAMES : 40292
NUMBER_OF_BYTES : 103147520
_STATISTICS_WRITING_APP : mkvmerge v8.3.0 ('Over the Horizon') 64bit
_STATISTICS_WRITING_DATE_UT : 2015-10-11 06:32:34
_STATISTICS_TAGS : BPS DURATION NUMBER_OF_FRAMES NUMBER_OF_BYTES
Video
ID : 1
Format : AVC
Format/Info : Advanced Video Codec
Format profile : High 10@L4.1
Format settings, CABAC : Yes
Format settings, ReFrames : 4 frames
Codec ID : V_MPEG4/ISO/AVC
Duration : 21mn 29s
Bit rate : 4 878 Kbps
Width : 1 920 pixels
Height : 1 080 pixels
Display aspect ratio : 16:9
Frame rate mode : Constant
Frame rate : 23.976 fps
Color space : YUV
Chroma subsampling : 4:2:0
Bit depth : 10 bits
Scan type : Progressive
Bits/(Pixel*Frame) : 0.098
Stream size : 750 MiB (75%)
Writing library : x264 core 148 r2597 e86f3a1
Encoding settings : cabac=1 / ref=4 / deblock=1:-2:-1 / analyse=0x3:0x133 / me=umh / subme=10 / psy=1 / psy_rd=1.00:0.20 / mixed_ref=1 / me_range=24 / chroma_me=1 / trellis=2 / 8x8dct=1 / cqm=0 / deadzone=21,11 / fast_pskip=1 / chroma_qp_offset=-3 / threads=8 / lookahead_threads=1 / sliced_threads=0 / nr=0 / decimate=1 / interlaced=0 / bluray_compat=0 / constrained_intra=0 / bframes=6 / b_pyramid=2 / b_adapt=2 / b_bias=0 / direct=3 / weightb=1 / open_gop=0 / weightp=2 / keyint=250 / keyint_min=23 / scenecut=40 / intra_refresh=0 / rc_lookahead=60 / rc=crf / mbtree=1 / crf=18.0 / qcomp=0.60 / qpmin=0 / qpmax=81 / qpstep=4 / ip_ratio=1.40 / aq=1:1.00
Language : English
Default : Yes
Forced : No
DURATION : 00:21:29.330000000
NUMBER_OF_FRAMES : 30913
NUMBER_OF_BYTES : 806360326
_STATISTICS_WRITING_APP : mkvmerge v8.3.0 ('Over the Horizon') 64bit
_STATISTICS_WRITING_DATE_UT : 2015-10-11 06:32:34
_STATISTICS_TAGS : BPS DURATION NUMBER_OF_FRAMES NUMBER_OF_BYTES
Audio #1
ID : 2
Format : AC-3
Format/Info : Audio Coding 3
Mode extension : CM (complete main)
Format settings, Endianness : Big
Codec ID : A_AC3
Duration : 21mn 29s
Bit rate mode : Constant
Bit rate : 192 Kbps
Channel(s) : 2 channels
Channel positions : Front: L R
Sampling rate : 48.0 KHz
Bit depth : 16 bits
Compression mode : Lossy
Stream size : 29.5 MiB (3%)
Title : Kuraj-Bambey
Language : Russian
Default : Yes
Forced : No
Audio #2
ID : 3
Format : AC-3
Format/Info : Audio Coding 3
Mode extension : CM (complete main)
Format settings, Endianness : Big
Codec ID : A_AC3
Duration : 21mn 29s
Bit rate mode : Constant
Bit rate : 448 Kbps
Channel(s) : 6 channels
Channel positions : Front: L C R, Side: L R, LFE
Sampling rate : 48.0 KHz
Bit depth : 16 bits
Compression mode : Lossy
Stream size : 68.9 MiB (7%)
Title : Kuraj-Bambey 2
Language : Russian
Default : No
Forced : No
Audio #3
ID : 4
Format : AC-3
Format/Info : Audio Coding 3
Mode extension : CM (complete main)
Format settings, Endianness : Big
Codec ID : A_AC3
Duration : 21mn 29s
Bit rate mode : Constant
Bit rate : 192 Kbps
Channel(s) : 2 channels
Channel positions : Front: L R
Sampling rate : 48.0 KHz
Bit depth : 16 bits
Compression mode : Lossy
Stream size : 29.5 MiB (3%)
Title : 2x2
Language : Russian
Default : No
Forced : No
Audio #4
ID : 5
Format : AC-3
Format/Info : Audio Coding 3
Mode extension : CM (complete main)
Format settings, Endianness : Big
Codec ID : A_AC3
Duration : 21mn 29s
Bit rate mode : Constant
Bit rate : 640 Kbps
Channel(s) : 6 channels
Channel positions : Front: L C R, Side: L R, LFE
Sampling rate : 48.0 KHz
Bit depth : 16 bits
Compression mode : Lossy
Stream size : 98.4 MiB (10%)
Title : English
Language : English
Default : No
Forced : No
Text #1
ID : 6
Format : UTF-8
Codec ID : S_TEXT/UTF8
Codec ID/Info : UTF-8 Plain Text
Title : Leprozoriy
Language : Russian
Default : No
Forced : No
Text #2
ID : 7
Format : UTF-8
Codec ID : S_TEXT/UTF8
Codec ID/Info : UTF-8 Plain Text
Title : English
Language : English
Default : No
Forced : No
Menu
00:00:00.000 : en:Chapter 01
00:02:22.642 : en:Chapter 02
00:02:45.206 : en:Chapter 03
00:10:45.353 : en:Chapter 04
00:21:03.220 : en:Chapter 05



Так как Звук Kuraj-Bambey 5,1 имеет жуткий срез на 14000Hz
Сделал эту дорожку дополнительной

Постер
Не забывайте говорить Спасибо. Не уходите с раздачи!   
Торрент: Зарегистрирован [14 ноя 2015, 12:58]
Статус:
Проверен
 
.torrent скачан: 0 раз
Хэш: 5047ae4ccfba19556c653bf5e9387c3d96588aa6
Размер: 24.85 ГБ (26 684 857 097 байт)
   Стать Автором раздачи
   
Цитата
  • Похожие торренты
    Ответы
    Просмотры
    Последнее сообщение

Вернуться в Теория большого взрыва / The Big Bang Theory

Кто сейчас на конференции

Сейчас эту тему просматривают: нет зарегистрированных пользователей и гости: 1