Теория Большого Взрыва / The Big Bang Theory / Сезон: 1 / Серии: 1-17 (17) (Марк Сендроуски) [2007, комедия, WEB-DL 720p] VO (Кураж-Бамбей) + DVO (НТВ) + MVO (СТС/Новамедиа) + Original + Sub

 Статистика раздачи 
Размер: 12.41 ГБ   |  Зарегистрирован: 21 ноя 2011, 14:37   |   .torrent скачан: 0 раз
Сидеров: 0  [ 0 байт/сек ]     Личеров: 0  [ 0 байт/сек ]  
  
Аватара пользователя
Главный редактор
Главный редактор
 
Раздал: 83.18 ТБ
Скачал: 3.76 ТБ
Ратио: 22.543
Сообщения: 213816
Стаж: 8 лет 8 месяцев 24 дня
Откуда: Санкт-Петербург


Теория Большого Взрыва / The Big Bang Theory
Сезон 1, Серия 01-17


Год выпуска: 2007
Страна: USA | CBS
Жанр: комедия
Продолжительность: ~ 00:22:00 x 17
Перевод 1: Профессиональный одноголосый закадровый [Кураж-Бамбей]
Перевод 2: Профессиональный двухголосый закадровый [НТВ]
Перевод 3: Профессиональный многоголосый закадровый [СТС/Новамедиа]
Субтитры: русские, английские

В ролях: Джонни Галекки, Джим Парсонс, Кейли Куоко, Саймон Хельберг, Кунал Найяр
Описание: Два блестящих физика, Леонард и Шелдон, «великие умы», которые понимают как «работает вселенная». Но их гениальность ничуть не помогает им общаться с людьми, особенно с женщинами. Всё начинает меняться, когда напротив них поселяется красавица Пенни.
Когда Леонард и Шелдон встречают Пенни, Леонард сразу же начинает интересоваться ею. Он видит в общении с Пенни огромную перспективу…, вплоть до любви, однако Шелдон понимает, что мечтам его друга не суждено сбыться.
Стоит также отметить пару странных друзей этих физиков: Говард Воловиц, который любит употреблять фразы на разных языках, включая русский и Раждеш Кутрапали, теряющий дар речи при виде женщин
[Все раздачи сериала]
Сэмпл: http://multi-up.com/598895 (1-я серия) | http://multi-up.com/599077 (2 и следующие)
Качество: WEB-DL 720p
Формат: MKV
Видео кодек: H.264
Аудио кодек: AC3 / AAC
Видео: H.264, 1280 x 720, 4 Mbit/s, 23.976 fps, 0.179 bit/pixel
Аудио 1: AC3 2.0, 2 ch, 48 kHz, 16 bit, 192 kbps [Русский, VO - Кураж-Бамбей]
Аудио 2: AC3 2.0, 2 ch, 48 kHz, 16 bit, 192 kbps [Русский, DVO - НТВ]
Аудио 3: AC3 2.0, 2 ch, 48 kHz, 16 bit, 192 kbps [Русский, MVO - СТС/Новамедиа]
Аудио 4: AAC 2.0, 2 ch, 48 kHz, LC (1-я серия) / AC3 5.1, 6 ch, 48 kHz, 16 bit, 384 kbps (2-я и следующие) [Английский]
General
Unique ID : 180358632784124519893136806211486615276 (0x87AFCF2528FEB317BD93248600EE06EC)
Complete name : The.Big.Bang.Theory.S01E02.The.Big.Bran.Hypothesis.3xRus.Eng.Sub.mkv
Format : Matroska
Format version : Version 2
File size : 758 MiB
Duration : 21mn 6s
Overall bit rate : 5 019 Kbps
Movie name : The Big Bang Theory S01E02 The Big Bran Hypothesis [3xRUS + ENG]
Encoded date : UTC 2011-11-21 20:05:31
Writing application : mkvmerge v4.9.1 ('Ich will') сборка от Jul 11 2011 23:53:15
Writing library : libebml v1.2.1 + libmatroska v1.1.1
Video
ID : 1
Format : AVC
Format/Info : Advanced Video Codec
Format profile : High@L3.1
Format settings, CABAC : No
Format settings, ReFrames : 2 frames
Codec ID : V_MPEG4/ISO/AVC
Duration : 21mn 6s
Bit rate : 3 959 Kbps
Width : 1 280 pixels
Height : 720 pixels
Display aspect ratio : 16:9
Frame rate : 23.976 fps
Color space : YUV
Chroma subsampling : 4:2:0
Bit depth : 8 bits
Scan type : Progressive
Bits/(Pixel*Frame) : 0.179
Stream size : 598 MiB (79%)
Title : The Big Bang Theory S01E02 The Big Bran Hypothesis
Language : English
Color primaries : BT.709-5, BT.1361, IEC 61966-2-4, SMPTE RP177
Transfer characteristics : BT.709-5, BT.1361
Matrix coefficients : BT.709-5, BT.1361, IEC 61966-2-4 709, SMPTE RP177
Audio #1
ID : 2
Format : AC-3
Format/Info : Audio Coding 3
Mode extension : CM (complete main)
Codec ID : A_AC3
Duration : 21mn 6s
Bit rate mode : Constant
Bit rate : 192 Kbps
Channel(s) : 2 channels
Channel positions : Front: L R
Sampling rate : 48.0 KHz
Bit depth : 16 bits
Compression mode : Lossy
Stream size : 29.0 MiB (4%)
Title : AC3 2.0 @ 192 kbps [Кураж-Бамбей]
Language : Russian
Audio #2
ID : 3
Format : AC-3
Format/Info : Audio Coding 3
Mode extension : CM (complete main)
Codec ID : A_AC3
Duration : 21mn 6s
Bit rate mode : Constant
Bit rate : 192 Kbps
Channel(s) : 2 channels
Channel positions : Front: L R
Sampling rate : 48.0 KHz
Bit depth : 16 bits
Compression mode : Lossy
Stream size : 29.0 MiB (4%)
Title : AC3 2.0 @ 192 kbps [НТВ/НТВ+]
Language : Russian
Audio #3
ID : 4
Format : AC-3
Format/Info : Audio Coding 3
Mode extension : CM (complete main)
Codec ID : A_AC3
Duration : 21mn 6s
Bit rate mode : Constant
Bit rate : 192 Kbps
Channel(s) : 2 channels
Channel positions : Front: L R
Sampling rate : 48.0 KHz
Bit depth : 16 bits
Compression mode : Lossy
Stream size : 29.0 MiB (4%)
Title : AC3 2.0 @ 192 kbps [СТС/Новамедиа]
Language : Russian
Audio #4
ID : 5
Format : AC-3
Format/Info : Audio Coding 3
Mode extension : CM (complete main)
Codec ID : A_AC3
Duration : 21mn 6s
Bit rate mode : Constant
Bit rate : 384 Kbps
Channel(s) : 6 channels
Channel positions : Front: L C R, Side: L R, LFE
Sampling rate : 48.0 KHz
Bit depth : 16 bits
Compression mode : Lossy
Stream size : 58.0 MiB (8%)
Title : AC3 5.1 @ 384 Kbps [Original]
Language : English
Text #1
ID : 6
Format : UTF-8
Codec ID : S_TEXT/UTF8
Codec ID/Info : UTF-8 Plain Text
Title : Disabled
Language : Russian
Text #2
ID : 7
Format : UTF-8
Codec ID : S_TEXT/UTF8
Codec ID/Info : UTF-8 Plain Text
Language : Russian
Text #3
ID : 8
Format : UTF-8
Codec ID : S_TEXT/UTF8
Codec ID/Info : UTF-8 Plain Text
Language : English

1-я серия

2-я и следующие


Внимание! Раздача ведётся путём добавления новых серий; при каждом добавлении создётся новый торрент. Чтобы начать докачку новой серии, пользователям необходимо сделать следующее:Остановить скачивание.
Удалить старый торрент у себя из клиента (старые серии удалять не надо).
[*]Скачать новый торрент и запустить его у себя в клиенте вместо старого, при этом указать клиенту путь в старую папку куда и должно происходить скачивание новых серий.Ваш клиент при этом должен произвести хеширование (проверку) старой папки (если не производит сам - помогите ему сделать это), и будет докачивать только те серии которых у вас ещё нет. Старые серии при этом не удаляются, а продолжают раздаваться!
Eсли вы уже удалили старые серии, то предотвратить повторную закачку старых серий можно, отжав галочку в соответсвующих местах при запуске нового торрента. По возможности, желательно не удалять старые серии как можно дольше чтобы релизёр не столько продолжал раздавать старые серии, а смог сконцентрироваться на новых.

Торрент обновлен. Добавлена полная 4-ая серия
Были переименованы следующие файлы:
    The.Big.Bang.Theory.S01E08.The.Grasshopper.Experiment.3xRus.Eng.Sub.mkv..mkv на The.Big.Bang.Theory.S01E08.The.Grasshopper.Experiment.3xRus.Eng.Sub.mkv
    The.Big.Bang.Theory.S01E09.The.Cooper-Hofstadter.Polarization.3xRus.Eng.Sub.mkv..mkv на The.Big.Bang.Theory.S01E09.The.Cooper-Hofstadter.Polarization.3xRus.Eng.Sub.mkv
  • The.Big.Bang.Theory.S01E10.The.Loobenfeld.Decay.3xRus.Eng.Sub.mkv..mkv на The.Big.Bang.Theory.S01E10.The.Loobenfeld.Decay.3xRus.Eng.Sub.mkv

Не забывайте говорить Спасибо. Не уходите с раздачи!   
Торрент: Зарегистрирован [21 ноя 2011, 14:37]
Статус:
Проверен
 
.torrent скачан: 0 раз
Хэш: 4d269493e226762a79ca1f4a283317ba8ac58c8c
Размер: 12.41 ГБ (13 328 604 712 байт)
   Стать Автором раздачи
   
Цитата
  • Похожие торренты
    Ответы
    Просмотры
    Последнее сообщение

Вернуться в Теория большого взрыва / The Big Bang Theory

Кто сейчас на конференции

Сейчас эту тему просматривают: нет зарегистрированных пользователей и гости: 1