Теория Большого Взрыва / The Big Bang Theory / Сезон: 7 / Серии: 1-24 из 24 (Марк Сендроуски, Питер Чакос, Энтони Джозеф Рич) [2013, США, комедия, WEB-DL 720p] VO (Кураж-Бамбей по заказу Paramount Comedy) + Original + Rus Sub (N-Team) + Eng Sub

 Статистика раздачи 
Размер: 16.64 ГБ   |  Зарегистрирован: 09 май 2014, 15:46   |   .torrent скачан: 0 раз
Сидеров: 0  [ 0 байт/сек ]     Личеров: 0  [ 0 байт/сек ]  
  
Аватара пользователя
Главный редактор
Главный редактор
 
Раздал: 83.18 ТБ
Скачал: 3.76 ТБ
Ратио: 22.543
Сообщения: 213816
Стаж: 8 лет 8 месяцев 24 дня
Откуда: Санкт-Петербург

Теория большого взрыва / The Big Bang Theory
Год выпуска: 2013
Страна: США
Жанр: комедия
Продолжительность серии: ~00:20:00
Перевод: Профессиональный (одноголосый закадровый) Кураж-Бамбей по заказу Paramount Comedy
Режиссёр: Марк Сендроуски, Питер Чакос, Энтони Джозеф Рич
В ролях: Джонни Галэки, Джим Парсонс, Кейли Куоко, Саймон Хелберг, Кунал Нэйэр, Мелисса Рауш, Майем Биэлик, Кэрол Энн Сьюзи, Кевин Сасмэн, Арти Манн
Описание:
Два блестящих физика, Леонард и Шелдон, «великие умы», которые понимают, как «работает вселенная». Но их гениальность ничуть не помогает им общаться с людьми, особенно с женщинами. Всё начинает меняться, когда напротив них поселяется красавица Пенни.
Когда Леонард и Шелдон встречают Пенни, Леонард сразу же начинает интересоваться ею. Он видит в общении с Пенни огромную перспективу, вплоть до любви, однако Шелдон понимает, что мечтам его друга не суждено сбыться.
Стоит также отметить пару странных друзей этих физиков: Воловиц, который любит употреблять фразы на разных языках, включая русский, и Раджеш Кутрапали, теряющий дар речи при виде женщин.
Все раздачи сериала | Сэмпл
Качество: WEB-DL 720p
Контейнер: MKV
Видео: 1280x720 at 23.976 fps, MPEG-4 AVC, ~4000 kbps avg, 0.18 bit/pixel
Аудио 1: Russian: 48 kHz, AC3, 3/2 (L,C,R,l,r) + LFE ch, ~384.00 kbps avg |Одноголосый закадровый, Кураж-Бамбей по заказу Paramount Comedy|
Аудио 2: English: 48 kHz, AC3, 3/2 (L,C,R,l,r) + LFE ch, ~384.00 kbps avg
Субтитры: Russian (N-Team), English
01: The Hofstadter Insufficiency / Хофстедтерова недостаточность
02: The Deception Verification / Проверка жульничества
03: The Scavenger Vortex / Мусорный водоворот
04: The Raiders Minimization / Абсурдизация Индианы
05: The Workplace Proximity / Эффект близости рабочих мест
06: The Romance Resonance / Резонанс романтичности
07: The Proton Displacement / Замещение протона
08: The Itchy Brain Simulation / Имитация мозгового зуда
09: The Thanksgiving Decoupling / Декаплинг Дня благодарения
10: The Discovery Dissipation / Распад открытия
11: The Cooper Extraction / Извлечение Купера
12: The Hesitation Ramification / Последствия колебания
13: The Occupation Recalibration / Рекалибровка деятельности
14: The Convention Conundrum / Шелдон-Кон
15: The Locomotive Manipulation / Паровозные махинации
16: The Table Polarization / Столовая поляризация
17: The Friendship Turbulence / Турбулентность в дружбе
18: The Mommy Observation / Наблюдение за мамочкой
19: The Indecision Amalgamation / Союз нерешительных
20: The Relationship Diremption / Раскол отношений
21: The Anything Can Happen Recurrence / Рецидив всего возможного
22: The Proton Transmogrification
23: The Gorilla Dissolution
24: The Status Quo Combustion
Цитата:
Цитата:
Код:
Код: Выделить всё
General
Complete name                            : The.Big.Bang.Theory.S07E20.720p.WEB-DL.Rus.Eng.HDCLUB.mkv
Format                                   : Matroska
Format version                           : Version 4 / Version 2
File size                                : 718 MiB
Duration                                 : 20mn 51s
Overall bit rate                         : 4 815 Kbps
Movie name                               : The Big Bang Theory 7x20 (2013) - Release for HDCLUB
Encoded date                             : UTC 2014-05-06 19:50:09
Writing application                      : mkvmerge v6.9.1 ('Blue Panther') 64bit built on Apr 18 2014 18:23:38
Writing library                          : libebml v1.3.0 + libmatroska v1.4.1
Video
ID                                       : 1
Format                                   : AVC
Format/Info                              : Advanced Video Codec
Format profile                           : High@L3.1
Format settings, CABAC                   : No
Format settings, ReFrames                : 2 frames
Codec ID                                 : V_MPEG4/ISO/AVC
Duration                                 : 20mn 51s
Bit rate                                 : 3 951 Kbps
Width                                    : 1 280 pixels
Height                                   : 718 pixels
Display aspect ratio                     : 16:9
Frame rate mode                          : Constant
Frame rate                               : 23.976 fps
Color space                              : YUV
Chroma subsampling                       : 4:2:0
Bit depth                                : 8 bits
Scan type                                : Progressive
Bits/(Pixel*Frame)                       : 0.179
Stream size                              : 589 MiB (82%)
Title                                    : The Big Bang Theory 7x20: The Relationship Diremption / Раскол отношений - Release for HDCLUB
Language                                 : English
Default                                  : Yes
Forced                                   : No
Color primaries                          : BT.709
Transfer characteristics                 : BT.709
Matrix coefficients                      : BT.709
Audio #1
ID                                       : 2
Format                                   : AC-3
Format/Info                              : Audio Coding 3
Mode extension                           : CM (complete main)
Format settings, Endianness              : Big
Codec ID                                 : A_AC3
Duration                                 : 20mn 51s
Bit rate mode                            : Constant
Bit rate                                 : 384 Kbps
Channel(s)                               : 6 channels
Channel positions                        : Front: L C R, Side: L R, LFE
Sampling rate                            : 48.0 KHz
Bit depth                                : 16 bits
Compression mode                         : Lossy
Stream size                              : 57.3 MiB (8%)
Language                                 : Russian
Default                                  : Yes
Forced                                   : No
Audio #2
ID                                       : 3
Format                                   : AC-3
Format/Info                              : Audio Coding 3
Mode extension                           : CM (complete main)
Format settings, Endianness              : Big
Codec ID                                 : A_AC3
Duration                                 : 20mn 51s
Bit rate mode                            : Constant
Bit rate                                 : 384 Kbps
Channel(s)                               : 6 channels
Channel positions                        : Front: L C R, Side: L R, LFE
Sampling rate                            : 48.0 KHz
Bit depth                                : 16 bits
Compression mode                         : Lossy
Stream size                              : 57.3 MiB (8%)
Language                                 : English
Default                                  : No
Forced                                   : No
Text #1
ID                                       : 4
Format                                   : UTF-8
Codec ID                                 : S_TEXT/UTF8
Codec ID/Info                            : UTF-8 Plain Text
Language                                 : Russian
Default                                  : No
Forced                                   : No
Text #2
ID                                       : 5
Format                                   : UTF-8
Codec ID                                 : S_TEXT/UTF8
Codec ID/Info                            : UTF-8 Plain Text
Language                                 : English
Default                                  : No
Forced                                   : No
[/spoiler]
Не забывайте говорить Спасибо. Не уходите с раздачи!   
Торрент: Зарегистрирован [09 май 2014, 15:46]
Статус:
Проверен
 
.torrent скачан: 0 раз
Хэш: 7672a860e67b6856521b4dac42db4dc9f173a3f3
Размер: 16.64 ГБ (17 868 815 274 байт)
   Стать Автором раздачи
   
Цитата
  • Похожие торренты
    Ответы
    Просмотры
    Последнее сообщение

Вернуться в Теория большого взрыва / The Big Bang Theory

Кто сейчас на конференции

Сейчас эту тему просматривают: нет зарегистрированных пользователей и гости: 1