Теория Большого Взрыва / The Big Bang Theory / Сезон: 11 / Серии: 1-24 из 24 (Марк Сендроуски, Питер Чакос, Энтони Джозеф Рич) [2017, США, Ситком, комедия, WEB-DL 1080p] VO (Кураж-Бамбей) + Original + Sub (Rus,Eng)

 Статистика раздачи 
Размер: 41.04 ГБ   |  Зарегистрирован: 29 сен 2017, 23:33   |   .torrent скачан: 0 раз
Сидеров: 0  [ 0 байт/сек ]     Личеров: 0  [ 0 байт/сек ]  
  
Аватара пользователя
Главный редактор
Главный редактор
 
Раздал: 83.18 ТБ
Скачал: 3.76 ТБ
Ратио: 22.548
Сообщения: 213311
Стаж: 8 лет 8 месяцев 21 день
Откуда: Санкт-Петербург

Теория Большого Взрыва / The Big Bang Theory

Год выпуска: 2017
Страна: США
Жанр: Ситком, комедия
Продолжительность: ~00:23:00
Перевод: Профессиональный (одноголосый закадровый) | Кураж-Бамбей
Режиссёр: Марк Сендроуски, Питер Чакос, Энтони Джозеф Рич
В ролях: Джонни Галэки, Джим Парсонс, Кейли Куоко, Саймон Хелберг, Кунал Найяр, Майем Биалик, Мелисса Рауш, Кэрол Энн Сьюзи, Кевин Суссман, Арти Манн, Брайан Джордж, Элис Эмтер, Сара Гилберт, Джон Росс Боуи, Уил Уитон, Лори Меткаф, Верни Уотсон-Джонсон, Кристин Барански, Джошуа Малина, Кейси Сэндер, Кэти Леклерк
Описание: The Big Bang Theory — это, уже ставший классическим, ситком от телеканала CBS, который вышел на экраны 24 сентября 2007 года. Его популярность можно сравнить, разве что, с нестареющей классикой Друзей, который тоже шел 10 лет и, наверное, сложно найти человека, который про него не слышал. The Big Bang Theory также снимается в студии, где присутствуют зрители компаниями Chuck Lorre Productions и Warner Bros. Television.
Можно сказать, что именно это шоу положило начало моде на «гиков» — умных парней со сложным детством и проблемами в общении со сверстниками, которые закрывались в своих комнатах и гаражах, мастерили домашние ядерные реакторы и зачитывались комиксами от Marvel или DC. У них очень сложные отношения с девушками, но это и есть причина того, что такие истории называются ситком (комедия положений).
Главные персонажи — это два очень умных физика, Леонард и Шелдон, которые живут вместе, все знают про атомы и физику частиц, но очень мало смыслят в обычной жизни. У них есть такие же «ущербные» друзья-товарищи — озабоченый инженер Говард Воловитц и астрофизик из Индии Раджеш Кутрапали, который напрочь теряет дар речи при виде девушки. На всё это сверху добавляем разбитную красотку Пенни, которая живёт напротив Шелдона с Леонардом. Она учит их жизни, они пытаются её воспитывать. Что в итоге получается — смотрите в сериале!
Ссылка на предыдущие и альтернативные раздачи[/spoiler]

Качество: WEB-DL 1080p
Контейнер: MKV
Видео: 1920x1080, 23.976 fps, MPEG-4 AVC, 10,3 Mбит/с, 0.206 bit/pixel
Аудио Rus: AC-3, 48,0 kHz, 6 ch, 384 kbps | Кураж-Бамбей
Аудио Eng: E-AC3, 48 kHz, 3/2 (L,C,R,l,r) + LFE ch, ~640.00 kbps
Субтитры: Английские, Русские (отдельно)
Реклама: Отсутствует
Код: Выделить всё
Общее
Уникальный идентификатор                 : 212830559462797732616898065455975722241 (0xA01DACBCBE889BF091CEE7C02F9B6D01)
Полное имя                               : E:\The.Big.Bang.Theory.s11e01.WEBRip.1080p.mkv
Формат                                   : Matroska
Версия формата                           : Version 4 / Version 2
Размер файла                             : 1,62 Гбайт
Продолжительность                        : 20 м. 36 с.
Режим общего битрейта                    : Переменный
Общий поток                              : 11,3 Мбит/сек
Дата кодирования                         : UTC 2017-12-05 13:27:57
Программа кодирования                    : mkvmerge v18.0.0 ('Apricity') 64-bit
Библиотека кодирования                   : libebml v1.3.5 + libmatroska v1.4.8
Видео
Идентификатор                            : 1
Формат                                   : AVC
Формат/Информация                        : Advanced Video Codec
Профиль формата                          : High@L4
Настройки формата                        : CABAC / 4 Ref Frames
Параметр CABAC формата                   : Да
Параметр RefFrames формата               : 4 кадра
Идентификатор кодека                     : V_MPEG4/ISO/AVC
Продолжительность                        : 20 м. 36 с.
Вид битрейта                             : Переменный
Битрейт                                  : 10,3 Мбит/сек
Максимальный битрейт                     : 15,0 Мбит/сек
Ширина                                   : 1920 пикселей
Высота                                   : 1080 пикселей
Соотношение сторон                       : 16:9
Режим частоты кадров                     : Постоянный
Частота кадров                           : 23,976 (24000/1001) кадра/сек
Цветовое пространство                    : YUV
Субдискретизация насыщенности            : 4:2:0
Битовая глубина                          : 8 бит
Тип развёртки                            : Прогрессивная
Бит/(Пиксели*Кадры)                      : 0.206
Размер потока                            : 1,48 Гбайт (91%)
Default                                  : Да
Forced                                   : Нет
Цветовой диапазон                        : Limited
Основные цвета                           : BT.709
Характеристики трансфера                 : BT.709
Коэффициенты матрицы                     : BT.709
Аудио #1
Идентификатор                            : 2
Формат                                   : AC-3
Формат/Информация                        : Audio Coding 3
Идентификатор кодека                     : A_AC3
Продолжительность                        : 20 м. 36 с.
Вид битрейта                             : Постоянный
Битрейт                                  : 384 Кбит/сек
Каналы                                   : 6 каналов
Расположение каналов                     : Front: L C R, Side: L R, LFE
Частота                                  : 48,0 КГц
Частота кадров                           : 31,250 кадров/сек (1536 SPF)
Битовая глубина                          : 16 бит
Метод сжатия                             : С потерями
Размер потока                            : 56,6 Мбайт (3%)
Заголовок                                : Кураж-Бамбей
Язык                                     : Russian
ServiceKind/String                       : Complete Main
Default                                  : Да
Forced                                   : Нет
Аудио #2
Идентификатор                            : 3
Формат                                   : E-AC-3
Формат/Информация                        : Enhanced Audio Coding 3
Идентификатор кодека                     : A_EAC3
Продолжительность                        : 20 м. 36 с.
Вид битрейта                             : Постоянный
Битрейт                                  : 640 Кбит/сек
Каналы                                   : 6 каналов
Расположение каналов                     : Front: L C R, Side: L R, LFE
Частота                                  : 48,0 КГц
Частота кадров                           : 187,500 кадров/сек (256 SPF)
Метод сжатия                             : С потерями
Размер потока                            : 94,3 Мбайт (6%)
Язык                                     : English
ServiceKind/String                       : Complete Main
Default                                  : Нет
Forced                                   : Нет
Текст
Идентификатор                            : 4
Формат                                   : UTF-8
Идентификатор кодека                     : S_TEXT/UTF8
Идентификатор кодека/Информация          : UTF-8 Plain Text
Продолжительность                        : 20 м. 1 с.
Битрейт                                  : 95 бит/сек
ElementCount                             : 463
Размер потока                            : 14,0 Кбайт (0%)
Заголовок                                : Субтитры
Язык                                     : English
Default                                  : Нет
Forced                                   : Нет


Внимание! Раздача ведётся путём добавления новых серий; при каждом добавлении создаётся новый торрент. Чтобы начать докачку новой серии, пользователям необходимо сделать следующее:
(1) остановить скачивание,
(2) удалить старый торрент у себя из клиента (старые серии удалять не надо),
(3) скачать новый торрент и запустить его у себя в клиенте вместо старого, при этом указать клиенту путь в старую папку куда и должно происходить скачивание новых серий.
Ваш клиент при этом должен произвести хеширование (проверку) старой папки (если не производит сам - помогите ему сделать это), и будет докачивать только те серии которых у вас ещё нет. Старые серии при этом не удаляются, а продолжают раздаваться!
Eсли вы уже удалили старые серии, то предотвратить повторную закачку старых серий можно, отжав галочку в соответствующих местах при запуске нового торрента. По возможности, желательно не удалять старые серии как можно дольше чтобы релизёр не столько продолжал раздавать старые серии, а смог сконцентрироваться на новых.

Релиз заменен на WEB-DL

Не забывайте говорить Спасибо. Не уходите с раздачи!   
Торрент: Зарегистрирован [29 сен 2017, 23:33]
Статус:
Проверен
 
.torrent скачан: 0 раз
Хэш: 5a653178c14b1e533b16e0f6ef87806a2f50f04f
Размер: 41.04 ГБ (44 062 528 627 байт)
   Стать Автором раздачи
   
Цитата
  • Похожие торренты
    Ответы
    Просмотры
    Последнее сообщение

Вернуться в Теория большого взрыва / The Big Bang Theory

Кто сейчас на конференции

Сейчас эту тему просматривают: нет зарегистрированных пользователей и гости: 1