Теория большого взрыва / The Big Bang Theory / Сезон: 10 / Серии: 1-24 из 24 (Марк Сендроуски, Питер Чакос, Энтони Джозеф Рич) [2016, США, Комедия, WEB-DL 720p] VO (Кураж-Бамбей) + VO (Кураж-Бамбей по заказу Paramount Comedy) + Original + Sub (Eng)

 Статистика раздачи 
Размер: 17.12 ГБ   |  Зарегистрирован: 13 янв 2017, 09:55   |   .torrent скачан: 0 раз
Сидеров: 0  [ 0 байт/сек ]     Личеров: 0  [ 0 байт/сек ]  
  
Аватара пользователя
Главный редактор
Главный редактор
 
Раздал: 83.18 ТБ
Скачал: 3.76 ТБ
Ратио: 22.543
Сообщения: 213816
Стаж: 8 лет 8 месяцев 24 дня
Откуда: Санкт-Петербург

Теория большого взрыва / The Big Bang Theory

Год выпуска: 2016
Страна: США
Жанр: Комедия
Продолжительность: ~00:23:00
Перевод: Профессиональный (одноголосый закадровый) | Кураж-Бамбей
Перевод: Профессиональный (одноголосый закадровый) | Кураж-Бамбей по заказу Paramount Comedy
Режиссёр: Марк Сендроуски, Питер Чакос, Энтони Джозеф Рич
В ролях: Джим Парсонс, Джонни Галэки, Кейли Куоко-Суитинг, Саймон Хелберг, Кунал Нэйэр, Мелисса Рауш, Майем Биалик, Кевин Сасмэн, Кэрол Энн Сьюзи, Джон Росс Боуи
Описание: The Big Bang Theory — это, уже ставший классическим, ситком от телеканала CBS, который вышел на экраны 24 сентября 2007 года. Его популярность можно сравнить, разве что, с нестареющей классикой Друзей, который тоже шел 10 лет и, наверное, сложно найти человека, который про него не слышал. The Big Bang Theory также снимается в студии, где присутствуют зрители компаниями Chuck Lorre Productions и Warner Bros. Television.
Можно сказать, что именно это шоу положило начало моде на «гиков» — умных парней со сложным детством и проблемами в общении со сверстниками, которые закрывались в своих комнатах и гаражах, мастерили домашние ядерные реакторы и зачитывались комиксами от Marvel или DC. У них очень сложные отношения с девушками, но это и есть причина того, что такие истории называются ситком (комедия положений).
Главные персонажи — это два очень умных физика, Леонард и Шелдон, которые живут вместе, все знают про атомы и физику частиц, но очень мало смыслят в обычной жизни. У них есть такие же «ущербные» друзья-товарищи — озабоченый инженер Говард Воловитц и астрофизик из Индии Раджеш Кутрапали, который напрочь теряет дар речи при виде девушки. На всё это сверху добавляем разбитную красотку Пенни, которая живёт напротив Шелдона с Леонардом. Она учит их жизни, они пытаются её воспитывать. Что в итоге получается — смотрите в сериале!
Ссылка на все раздачи сериала "The Big Bang Theory"[/spoiler]
by s_white
Цитата:
Цитата:
Дорожки №1 и №2 получены наложением выделенного голоса на центр оригинального AC3. Работа со звуком kmarats.
Благодарим xironfs за запись звука с канала Paramount Comedy.
В 5 серии дорожка Paramaunt 2.0 384


Качество: WEB-DL 720p
Контейнер: MKV
Видео: 1278x720, 23.976 fps, MPEG-4 AVC, ~3900 kbps avg, 0.183 bit/pixel
Аудио: 48 kHz, AC3, 3/2 (L,C,R,l,r) + LFE ch, 384.00 kbps avg | Кураж-Бамбей
Аудио: 48 kHz, AC3, 3/2 (L,C,R,l,r) + LFE ch, 384.00 kbps avg | Кураж-Бамбей по заказу Paramount Comedy
Аудио: 48 kHz, AC3, 3/2 (L,C,R,l,r) + LFE ch, 384.00 kbps avg
Субтитры: English
Реклама: Отсутствует
Код: Выделить всё
Общее
Уникальный идентификатор                 : 170322493472345929871264820481294625805 (0x8022EB4614DE29F4B0D2F8F97DAC6C0D)
Полное имя                               : E:\Movies\The Big Bang Theory (Season 10) WEB-DL 720p\The.Big.Bang.Theory.S10E01.WEB-DL.720p.Rus.Eng.HDCLUB.mkv
Формат                                   : Matroska
Версия формата                           : Version 4 / Version 2
Размер файла                             : 808 Мбайт
Продолжительность                        : 21 м. 45 с.
Режим общего битрейта                    : Переменный
Общий поток                              : 5194 Кбит/сек
Название фильма                          : The Big Bang Theory 10x01 (2016) - Release kmarats for HDCLUB
Дата кодирования                         : UTC 2016-10-27 09:52:38
Программа кодирования                    : mkvmerge v9.4.2 ('So High') 64bit
Библиотека кодирования                   : libebml v1.3.4 + libmatroska v1.4.5
Видео
Идентификатор                            : 1
Формат                                   : AVC
Формат/Информация                        : Advanced Video Codec
Профиль формата                          : High@L3.1
Параметр CABAC формата                   : Да
Параметр ReFrames формата                : 2 кадра
Идентификатор кодека                     : V_MPEG4/ISO/AVC
Продолжительность                        : 21 м. 45 с.
Вид битрейта                             : Переменный
Битрейт                                  : 4039 Кбит/сек
Максимальный битрейт                     : 768 Кбит/сек
Ширина                                   : 1278 пикселей
Высота                                   : 720 пикселей
Соотношение сторон                       : 16:9
Режим частоты кадров                     : Постоянный
Частота кадров                           : 23,976 (23976/1000) кадра/сек
Частота кадров в оригинале               : 25,000 кадров/сек
Цветовое пространство                    : YUV
Субдискретизация насыщенности            : 4:2:0
Битовая глубина                          : 8 бит
Тип развёртки                            : Прогрессивная
Бит/(Пиксели*Кадры)                      : 0.183
Размер потока                            : 629 Мбайт (78%)
Заголовок                                : The Big Bang Theory 10x01 (2016) - Release kmarats for HDCLUB
Язык                                     : English
Default                                  : Да
Forced                                   : Нет
Аудио #1
Идентификатор                            : 2
Формат                                   : AC-3
Формат/Информация                        : Audio Coding 3
Расширение режима                        : CM (complete main)
Параметр Endianness формата              : Big
Идентификатор кодека                     : A_AC3
Продолжительность                        : 21 м. 45 с.
Вид битрейта                             : Постоянный
Битрейт                                  : 384 Кбит/сек
Каналы                                   : 6 каналов
Расположение каналов                     : Front: L C R, Side: L R, LFE
Частота                                  : 48,0 КГц
Частота кадров                           : 31,250 кадров/сек (1536 spf)
Битовая глубина                          : 16 бит
Метод сжатия                             : С потерями
Размер потока                            : 59,8 Мбайт (7%)
Заголовок                                : Kuraj
Язык                                     : Russian
Default                                  : Да
Forced                                   : Нет
Аудио #2
Идентификатор                            : 3
Формат                                   : AC-3
Формат/Информация                        : Audio Coding 3
Расширение режима                        : CM (complete main)
Параметр Endianness формата              : Big
Идентификатор кодека                     : A_AC3
Продолжительность                        : 21 м. 45 с.
Вид битрейта                             : Постоянный
Битрейт                                  : 384 Кбит/сек
Каналы                                   : 6 каналов
Расположение каналов                     : Front: L C R, Side: L R, LFE
Частота                                  : 48,0 КГц
Частота кадров                           : 31,250 кадров/сек (1536 spf)
Битовая глубина                          : 16 бит
Метод сжатия                             : С потерями
Размер потока                            : 59,8 Мбайт (7%)
Заголовок                                : Paramount Comedy
Язык                                     : Russian
Default                                  : Нет
Forced                                   : Нет
Аудио #3
Идентификатор                            : 4
Формат                                   : AC-3
Формат/Информация                        : Audio Coding 3
Расширение режима                        : CM (complete main)
Параметр Endianness формата              : Big
Идентификатор кодека                     : A_AC3
Продолжительность                        : 21 м. 45 с.
Вид битрейта                             : Постоянный
Битрейт                                  : 384 Кбит/сек
Каналы                                   : 6 каналов
Расположение каналов                     : Front: L C R, Side: L R, LFE
Частота                                  : 48,0 КГц
Частота кадров                           : 31,250 кадров/сек (1536 spf)
Битовая глубина                          : 16 бит
Метод сжатия                             : С потерями
Размер потока                            : 59,8 Мбайт (7%)
Заголовок                                : English
Язык                                     : English
Default                                  : Нет
Forced                                   : Нет
Текст
Идентификатор                            : 5
Формат                                   : UTF-8
Идентификатор кодека                     : S_TEXT/UTF8
Идентификатор кодека/Информация          : UTF-8 Plain Text
Продолжительность                        : 21 м. 13 с.
Битрейт                                  : 100 бит/сек
Count of elements                        : 478
Размер потока                            : 15,7 Кбайт (0%)
Заголовок                                : eng-sub
Язык                                     : English
Default                                  : Нет
Forced                                   : Нет


Внимание! Раздача ведётся путём добавления новых серий; при каждом добавлении создаётся новый торрент. Чтобы начать докачку новой серии, пользователям необходимо сделать следующее:
(1) остановить скачивание,
(2) удалить старый торрент у себя из клиента (старые серии удалять не надо),
(3) скачать новый торрент и запустить его у себя в клиенте вместо старого, при этом указать клиенту путь в старую папку куда и должно происходить скачивание новых серий.
Ваш клиент при этом должен произвести хеширование (проверку) старой папки (если не производит сам - помогите ему сделать это), и будет докачивать только те серии которых у вас ещё нет. Старые серии при этом не удаляются, а продолжают раздаваться!
Eсли вы уже удалили старые серии, то предотвратить повторную закачку старых серий можно, отжав галочку в соответствующих местах при запуске нового торрента. По возможности, желательно не удалять старые серии как можно дольше чтобы релизёр не столько продолжал раздавать старые серии, а смог сконцентрироваться на новых.
Не забывайте говорить Спасибо. Не уходите с раздачи!   
Торрент: Зарегистрирован [13 янв 2017, 09:55]
Статус:
Проверен
 
.torrent скачан: 0 раз
Хэш: b58e451d12cca488e6427290b926a991259d9a68
Размер: 17.12 ГБ (18 381 193 076 байт)
   Стать Автором раздачи
   
Цитата
  • Похожие торренты
    Ответы
    Просмотры
    Последнее сообщение

Вернуться в Теория большого взрыва / The Big Bang Theory

Кто сейчас на конференции

Сейчас эту тему просматривают: нет зарегистрированных пользователей и гости: 1