Теория большого взрыва / The big bang theory / Сезон: 8 / Серии: 1-24 из 24 (Марк Сендроуски, Питер Чакос, Энтони Джозеф Рич) [2014, США, Ситком, WEB-DL 1080p] VO (Кураж-Бамбей)

 Статистика раздачи 
Размер: 19.57 ГБ   |  Зарегистрирован: 29 авг 2015, 04:32   |   .torrent скачан: 0 раз
Сидеров: 0  [ 0 байт/сек ]     Личеров: 0  [ 0 байт/сек ]  
  
Аватара пользователя
Главный редактор
Главный редактор
 
Раздал: 83.18 ТБ
Скачал: 3.76 ТБ
Ратио: 22.548
Сообщения: 213311
Стаж: 8 лет 8 месяцев 21 день
Откуда: Санкт-Петербург

Теория большого взрыва / The big bang theory
Год выпуска: 2014
Страна: США
Жанр: Ситком
Продолжительность: 21 мин/серия
Перевод: Профессиональный (одноголосый закадровый) Кураж-Бамбей
Режиссёр: Марк Сендроуски, Питер Чакос, Энтони Джозеф Рич
В ролях:Джонни Галэки (Леонард Хоффстедер)
Джим Парсонс (Шелдон Купер)
Кейли Куоко (Пенни)
Саймон Хелберг (Говард Воловитц)
Кунал Найяр (Раджеш Кутраппали)
Мелисса Ройч (Бернадетт Мэри Энн Ростенковски)
Маим Бялик (Эми Фара Фаулер)
Описание: Многосерийный комедийный проект, в котором совмещены комичные ситуации и любовная линия, а также гениальные идеи и задумки. Двое молодых людей усиленно занимаются физикой, что у них довольно удачно получается, можно сказать даже гениально. Но несмотря на успехи на научном поприще, такую науку как обольщение женского пола они постичь не успели. И когда на горизонте появляется красивая девушка, парни теряют не только дар речи, но и способность нормально мыслить. На этом фоне происходит масса интересных ситуаций.
Ссылка на предыдущие и альтернативные HD-раздачи
Сэмпл
Качество: WEB-DL 1080p
Контейнер: MKV
Видео: Advanced Video Codec, 1916x1076, 16:9, 23,976 fps, 5040 kbps
Аудио: Руссий/Кураж-Бамбей, AC3, 48 kHz, 6 ch, 384 kbps
Аудио 2: Английский/Оригинальный, AC3, 48 kHz, 6 ch, 384 kbps
Субтитры:Оригинальные английские (softsub)
Русские N-Team (softsub)
Русские 666-Team (softsub)
1 «The Locomotion Interruption» (Прерывание локомотива)
2 «The Junior Professor Solution» (Решение младшего профессора)
3 «The First Pitch Insufficiency» (Недостаточность первого шага)
4 «The Hook-up Reverberation»
5 «The Focus Attenuation»
6 «The Expedition Approximation»
7 «The Misinterpretation Agitation»
8 «The Prom Equilvalency»
9 «The Septum Deviation» (Отклонение перегородки)
10 «The Champagne Reflection» (Отражение шампанского)
11 «The Clean Room Infiltration»
12 «The Space Probe Desintegration» (Распад космического зонда)
13 «The Anxiety Optimization» (Оптимизация тревоги)
14 «The Troll Manifestation» (Появление тролля)
15 «The Comic Book Store Regeneration» (Восстановление магазина комиксов)
16 «The Intimacy Acceleration»
17 «The Colonization Application» (Применение колонизации)
18 «The Leftover Thermalization»
19 «The Skywalker Incursion»
20 «The Fortification Implementation»
21 «The Communication Deterioration» (Ухудшение коммуникации)
22 «The Graduation Transmission»
23 «The Maternal Combustion» (Возгорание материнства)
24 «The Commitment Determination» (Определение обязательства)
Общее
Уникальный идентификатор : 254840226810624826524210373607884596872 (0xBFB87140230D2673BC19E54479042688)
Полное имя : C:\Сериалы\The.Big.Bang.Theory.S08.1080p.WEB-DL.Rus.Eng.HDCLUB\The.Big.Bang.Theory.S08E14.1080p.WEB-DL.Rus.Eng.HDCLUB.mkv
Формат : Matroska
Версия формата : Version 4 / Version 2
Размер файла : 911 Мбайт
Продолжительность : 21 м.
Общий поток : 5926 Кбит/сек
Название фильма : The Big Bang Theory 8x14 (2014) - Release for HDCLUB
Дата кодирования : UTC 2015-02-09 21:58:54
Программа кодирования : mkvmerge v7.6.0 ('Garden of Dreams') 64bit built on Feb 8 2015 13:04:34
Библиотека кодирования : libebml v1.3.1 + libmatroska v1.4.2
DURATION : 00:20:55.651000000
NUMBER_OF_FRAMES : 479
NUMBER_OF_BYTES : 15782
_STATISTICS_WRITING_APP : mkvmerge v7.6.0 ('Garden of Dreams') 64bit built on Feb 8 2015 13:04:34
_STATISTICS_WRITING_DATE_UTC : 2015-02-09 21:58:54
_STATISTICS_TAGS : BPS DURATION NUMBER_OF_FRAMES NUMBER_OF_BYTES
Видео
Идентификатор : 1
Формат : AVC
Формат/Информация : Advanced Video Codec
Профиль формата : High@L4
Параметр CABAC формата : Да
Параметр ReFrames формата : 4 кадра
Идентификатор кодека : V_MPEG4/ISO/AVC
Продолжительность : 21 м.
Битрейт : 5040 Кбит/сек
Ширина : 1916 пикселей
Высота : 1076 пикселей
Соотношение сторон : 16:9
Режим частоты кадров : Постоянный
Частота кадров : 23,976 кадра/сек
Цветовое пространство : YUV
Субдискретизация насыщенности : 4:2:0
Битовая глубина : 8 бит
Тип развёртки : Прогрессивная
Бит/(Пиксели*Кадры) : 0.102
Размер потока : 775 Мбайт (85%)
Заголовок : The Big Bang Theory 8x14: The Troll Manifestation - Release for HDCLUB
Язык : English
Default : Да
Forced : Нет
Цветовой диапазон : Limited
Основные цвета : BT.709
Характеристики трансфера : BT.709
Коэффициенты матрицы : BT.709
Аудио #1
Идентификатор : 2
Формат : AC-3
Формат/Информация : Audio Coding 3
Расширение режима : CM (complete main)
Параметр Endianness формата : Big
Идентификатор кодека : A_AC3
Продолжительность : 21 м.
Вид битрейта : Постоянный
Битрейт : 384 Кбит/сек
Каналы : 6 каналов
Расположение каналов : Front: L C R, Side: L R, LFE
Частота : 48,0 КГц
Метод сжатия : С потерями
Размер потока : 59,0 Мбайт (6%)
Язык : Russian
Default : Да
Forced : Нет
Аудио #2
Идентификатор : 3
Формат : AC-3
Формат/Информация : Audio Coding 3
Расширение режима : CM (complete main)
Параметр Endianness формата : Big
Идентификатор кодека : A_AC3
Продолжительность : 21 м.
Вид битрейта : Постоянный
Битрейт : 384 Кбит/сек
Каналы : 6 каналов
Расположение каналов : Front: L C R, Side: L R, LFE
Частота : 48,0 КГц
Метод сжатия : С потерями
Размер потока : 59,0 Мбайт (6%)
Язык : English
Default : Нет
Forced : Нет
Текст #1
Идентификатор : 4
Формат : UTF-8
Идентификатор кодека : S_TEXT/UTF8
Идентификатор кодека/Информация : UTF-8 Plain Text
Заголовок : 666-Team
Язык : Russian
Default : Нет
Forced : Нет
Текст #2
Идентификатор : 5
Формат : UTF-8
Идентификатор кодека : S_TEXT/UTF8
Идентификатор кодека/Информация : UTF-8 Plain Text
Язык : English
Default : Нет
Forced : Нет
Не забывайте говорить Спасибо. Не уходите с раздачи!   
Торрент: Зарегистрирован [29 авг 2015, 04:32]
Статус:
Проверен
 
.torrent скачан: 0 раз
Хэш: f9d90b4eafb8d3f377f31af90fd2b5520be9633e
Размер: 19.57 ГБ (21 017 376 577 байт)
   Стать Автором раздачи
   
Цитата
  • Похожие торренты
    Ответы
    Просмотры
    Последнее сообщение

Вернуться в Теория большого взрыва / The Big Bang Theory

Кто сейчас на конференции

Сейчас эту тему просматривают: нет зарегистрированных пользователей и гости: 1