Теория Большого Взрыва / The Big Bang Theory / Сезон: 12 / Серии: 1-24 из 24 (Марк Сендроуски, Энтони Джозеф Рич, Питер Чакос) [2018, США, Ситком, комедия, WEBRip 720p] DVO (Gears Media) + Original

 Статистика раздачи 
Размер: 14.93 ГБ   |  Зарегистрирован: 16 окт 2018, 08:32   |   .torrent скачан: 3 раз
Сидеров: 38  [ 0 байт/сек ]     Личеров: 14  [ 0 байт/сек ]  
  
Аватара пользователя
Главный редактор
Главный редактор
 
Раздал: 83.18 ТБ
Скачал: 3.76 ТБ
Ратио: 22.543
Сообщения: 213816
Стаж: 8 лет 8 месяцев 24 дня
Откуда: Санкт-Петербург

Теория Большого Взрыва / The Big Bang Theory
Год выпуска: 2018
Страна: США
Жанр: Ситком, комедия
Продолжительность: ~ 00:20:00
Перевод: Профессиональный (двухголосый закадровый)[Gears Media]
Режиссёр: Марк Сендроуски, Энтони Джозеф Рич, Питер Чакос
В ролях: Джонни Галэки, Джим Парсонс, Кейли Куоко, Саймон Хелберг, Кунал Найяр, Майем Биалик, Мелисса Рауш, Кэрол Энн Сьюзи, Кевин Суссман, Арти Манн, Брайан Джордж, Элис Эмтер, Сара Гилберт, Джон Росс Боуи, Уил Уитон, Лори Меткаф, Верни Уотсон-Джонсон, Кристин Барански, Джошуа Малина, Кейси Сэндер, Кэти Леклерк
Описание:
Леонард и Пенни стали супругами и переживают новый период отношений. Они узнают о помолвке Шелдон и Эми, которые устроили сложные испытания для определения лучшего друга для молодожёнов. Парочка остановилась на Леонарде, который знает, что угодить другу невозможно. Шелдон скрывает от друзей, что продолжает работать с военными и строит ракету. Леонард занимается исследованиями тёмной материи. События развиваются с необычайной скоростью. Компания Пенни хочет заключить контракт с Биллом Гейтсом, и приятели готовятся к встрече с компьютерным гением. Шелдон отправляется в лесную хижину к учёному Уолкотту, а потом уезжает в Вегас подзаработать денег. Идут дружные приготовления к свадьбе. Только у Эми с Шелдоном совсем другие планы.
Ссылка на предыдущие и альтернативные раздачи: https://rutracker.org/forum/tracker.php?g=foreign_serials&nm=The%20Big%20Bang%20Theory
Сэмпл: http://multi-up.com/1211996
Качество: WEBRip 720p
Формат: MKV
Видео: X264, 1280x720 at 23.976 fps, ~3000 kbps avg
Аудио1: Russian, AC3, 48 kHz, 2 ch, 384 kbps
Аудио2: English, AAC, 48 kHz, 6 ch, 125 kbps
Субтитры: нет
Реклама: аудио (два раза, в начале и конце, по 12 сек.)
Format : Matroska
Format version : Version 4
File size : 517 MiB
Duration : 20 min 37 s
Overall bit rate : 3 506 kb/s
Encoded date : UTC 2018-10-16 07:35:20
Writing application : mkvmerge v20.0.0 ('I Am The Sun') 64-bit
Writing library : libebml v1.3.5 + libmatroska v1.4.8
Video
ID : 1
Format : AVC
Format/Info : Advanced Video Codec
Format profile : High@L4
Format settings : CABAC / 5 Ref Frames
Format settings, CABAC : Yes
Format settings, ReFrames : 5 frames
Codec ID : V_MPEG4/ISO/AVC
Duration : 20 min 37 s
Bit rate : 3 000 kb/s
Width : 1 280 pixels
Height : 720 pixels
Display aspect ratio : 16:9
Frame rate mode : Constant
Frame rate : 23.976 (24000/1001) FPS
Color space : YUV
Chroma subsampling : 4:2:0
Bit depth : 8 bits
Scan type : Progressive
Bits/(Pixel*Frame) : 0.136
Stream size : 442 MiB (85%)
Writing library : x264 core 152
Encoding settings : cabac=1 / ref=5 / deblock=1:0:0 / analyse=0x3:0x113 / me=hex / subme=8 / psy=1 / psy_rd=1.00:0.00 / mixed_ref=1 / me_range=16 / chroma_me=1 / trellis=2 / 8x8dct=1 / cqm=0 / deadzone=21,11 / fast_pskip=1 / chroma_qp_offset=-2 / threads=22 / lookahead_threads=3 / sliced_threads=0 / nr=0 / decimate=1 / interlaced=0 / bluray_compat=0 / stitchable=1 / constrained_intra=0 / bframes=3 / b_pyramid=2 / b_adapt=1 / b_bias=0 / direct=3 / weightb=1 / open_gop=0 / weightp=2 / keyint=48 / keyint_min=4 / scenecut=0 / intra_refresh=0 / rc_lookahead=48 / rc=2pass / mbtree=1 / bitrate=3000 / ratetol=1.0 / qcomp=0.60 / qpmin=0 / qpmax=69 / qpstep=4 / cplxblur=20.0 / qblur=0.5 / vbv_maxrate=3600 / vbv_bufsize=3000 / nal_hrd=none / filler=0 / ip_ratio=1.40 / aq=1:1.00
Default : Yes
Forced : No
Audio #1
ID : 2
Format : AC-3
Format/Info : Audio Coding 3
Commercial name : Dolby Digital
Codec ID : A_AC3
Duration : 20 min 37 s
Bit rate mode : Constant
Bit rate : 384 kb/s
Channel(s) : 2 channels
Channel layout : L R
Sampling rate : 48.0 kHz
Frame rate : 31.250 FPS (1536 SPF)
Bit depth : 16 bits
Compression mode : Lossy
Delay relative to video : -83 ms
Stream size : 56.7 MiB (11%)
Title : Gears Media
Language : Russian
Service kind : Complete Main
Default : Yes
Forced : Yes
Audio #2
ID : 3
Format : AAC LC
Format/Info : Advanced Audio Codec Low Complexity
Codec ID : A_AAC-2
Duration : 20 min 37 s
Bit rate : 125 kb/s
Channel(s) : 2 channels
Channel layout : L R
Sampling rate : 48.0 kHz
Frame rate : 46.875 FPS (1024 SPF)
Compression mode : Lossy
Delay relative to video : -83 ms
Stream size : 18.5 MiB (4%)
Language : English
Default : No
Forced : No
Внимание! Раздача ведётся путём добавления новых серий; при каждом добавлении создаётся новый торрент. Чтобы начать докачку новой серии, пользователям необходимо сделать следующее:
(1) остановить скачивание,
(2) удалить старый торрент у себя из клиента (старые серии удалять не надо),
(3) скачать новый торрент и запустить его у себя в клиенте вместо старого, при этом указать клиенту путь в старую папку куда и должно происходить скачивание новых серий.
Ваш клиент при этом должен произвести хеширование (проверку) старой папки (если не производит сам - помогите ему сделать это), и будет докачивать только те серии которых у вас ещё нет. Старые серии при этом не удаляются, а продолжают раздаваться!
Eсли вы уже удалили старые серии, то предотвратить повторную закачку старых серий можно, отжав галочку в соответствующих местах при запуске нового торрента. По возможности, желательно не удалять старые серии как можно дольше чтобы релизёр не столько продолжал раздавать старые серии, а смог сконцентрироваться на новых.
Не забывайте говорить Спасибо. Не уходите с раздачи!   
Торрент: Зарегистрирован [16 окт 2018, 08:32]
Статус:
Проверен
 
.torrent скачан: 3 раз
Хэш: efdb052473fdd04092614f43cb06962af0ce661a
Размер: 14.93 ГБ (16 030 889 009 байт)
   Стать Автором раздачи
   
Цитата
  • Похожие торренты
    Ответы
    Просмотры
    Последнее сообщение

Вернуться в Теория большого взрыва / The Big Bang Theory

Кто сейчас на конференции

Сейчас эту тему просматривают: нет зарегистрированных пользователей и гости: 1