Теория Большого Взрыва / The Big Bang Theory / Сезон: 5 / Серии: 1-24 (24) (Марк Сендроуски) [2011-2012, США, ситком, WEB-DL 720p] Original + Rus (notabenoid) & Eng Sub

 Статистика раздачи 
Размер: 15.57 ГБ   |  Зарегистрирован: 23 сен 2011, 14:51   |   .torrent скачан: 0 раз
Сидеров: 0  [ 0 байт/сек ]     Личеров: 0  [ 0 байт/сек ]  
  
Аватара пользователя
Главный редактор
Главный редактор
 
Раздал: 83.18 ТБ
Скачал: 3.76 ТБ
Ратио: 22.548
Сообщения: 213311
Стаж: 8 лет 8 месяцев 21 день
Откуда: Санкт-Петербург


Теория Большого Взрыва / The Big Bang Theory

Год выпуска: 2011
Страна: США Телеканал: CBS
Жанр: ситком
Продолжительность: 00:22:00
Перевод: оригинал
Субтитры: русские от notabenoid, английские
Режиссёр: Марк Сендроуски
В ролях: Джим Парсонс (Шелдон), Джонни Галецки (Леонард), Кейли Куоко (Пенни), Саймон Хелберг (Говард), Кунал Нэйэр (Раджеш), Сара Гилберт (Лесли)
Описание:Два блестящих физика, Леонард и Шелдон, «великие умы», которые понимают как «работает вселенная». Но их гениальность ничуть не помогает им общаться с людьми, особенно с женщинами. Всё начинает меняться, когда напротив них поселяется красавица Пенни. Когда Леонард и Шелдон встречают Пенни, Леонард сразу же начинает интересоваться ею. Он видит в общении с Пенни огромную перспективу, вплоть до любви, однако, Шелдон понимает, что мечтам его друга не суждено сбыться. Стоит также отметить пару странных друзей этих физиков: Воловец, который любит употреблять фразы на разных языках, включая русский и Раджеш Кутрапали, теряющий дар речи при виде женщин...

Качество: WEB-DL 720p
Формат: MKV
Видео кодек: H.264
Аудио кодек: AC3
Видео: 1280x720, 3 964 Kbps, 23.976 fps, 0.179 bit/pixel
Аудио: 384 Kbps, 48.0 KHz, 6 ch
Код: Выделить всё
Format                           : Matroska
File size                        : 684 MiB
Duration                         : 21mn 32s
Overall bit rate                 : 4 436 Kbps
Encoded date                     : UTC 2011-09-23 10:15:10
Writing application              : mkvmerge v4.6.0 ('Still Crazy After All These Years') built on Mar 10 2011 02:50:32
Writing library                  : libebml v1.2.0 + libmatroska v1.1.0
Video
ID                               : 1
Format                           : AVC
Format/Info                      : Advanced Video Codec
Format profile                   : High@L3.1
Format settings, CABAC           : No
Format settings, ReFrames        : 2 frames
Format settings, GOP             : M=2, N=26
Codec ID                         : V_MPEG4/ISO/AVC
Duration                         : 21mn 32s
Bit rate                         : 3 964 Kbps
Width                            : 1 280 pixels
Height                           : 720 pixels
Display aspect ratio             : 16:9
Frame rate                       : 23.976 fps
Color space                      : YUV
Chroma subsampling               : 4:2:0
Bit depth                        : 8 bits
Scan type                        : Progressive
Bits/(Pixel*Frame)               : 0.179
Stream size                      : 611 MiB (89%)
Language                         : English
Color primaries                  : BT.709-5, BT.1361, IEC 61966-2-4, SMPTE RP177
Transfer characteristics         : BT.709-5, BT.1361
Matrix coefficients              : BT.709-5, BT.1361, IEC 61966-2-4 709, SMPTE RP177
Audio
ID                               : 2
Format                           : AC-3
Format/Info                      : Audio Coding 3
Mode extension                   : CM (complete main)
Codec ID                         : A_AC3
Duration                         : 21mn 32s
Bit rate mode                    : Constant
Bit rate                         : 384 Kbps
Channel(s)                       : 6 channels
Channel positions                : Front: L C R, Side: L R, LFE
Sampling rate                    : 48.0 KHz
Bit depth                        : 16 bits
Compression mode                 : Lossy
Stream size                      : 59.2 MiB (9%)
Title                            : English
Language                         : English
Раздача ведётся путём добавления новых серий; при каждом добавлении создаётся новый торрент. Чтобы начать докачку новой серии, пользователям необходимо сделать следующее:
(1) остановить скачивание,
(2) удалить старый торрент у себя из клиента (старые серии удалять не надо),
(3) скачать новый торрент и запустить его у себя в клиенте вместо старого, при этом указать клиенту путь в старую папку куда и должно происходить скачивание новых серий.
Ваш клиент при этом должен произвести хеширование (проверку) старой папки (если не производит сам - помогите ему сделать это), и будет докачивать только те серии которых у вас ещё нет. Старые серии при этом не удаляются, а продолжают раздаваться!
Eсли вы уже удалили старые серии, то предотвратить повторную закачку старых серий можно, отжав галочку в соответствующих местах при запуске нового торрента. По возможности, желательно не удалять старые серии как можно дольше чтобы релизёр не столько продолжал раздавать старые серии, а смог сконцентрироваться на новых.

Не забывайте говорить Спасибо. Не уходите с раздачи!   
Торрент: Зарегистрирован [23 сен 2011, 14:51]
Статус:
Проверен
 
.torrent скачан: 0 раз
Хэш: 2b7dfc3a321a7f14bac66012c84d11a57aef1ea7
Размер: 15.57 ГБ (16 720 399 673 байт)
   Стать Автором раздачи
   
Цитата
  • Похожие торренты
    Ответы
    Просмотры
    Последнее сообщение

Вернуться в Теория большого взрыва / The Big Bang Theory

Кто сейчас на конференции

Сейчас эту тему просматривают: нет зарегистрированных пользователей и гости: 1