Теория Большого Взрыва / The Big Bang Theory / Сезон: 3 / Серии: 1-23 (23) (Марк Сендроуски) [2009-2010, США, комедия, BDRip 720p] MVO (СТС)

 Статистика раздачи 
Размер: 25.7 ГБ   |  Зарегистрирован: 13 май 2011, 11:34   |   .torrent скачан: 0 раз
Сидеров: 0  [ 0 байт/сек ]     Личеров: 0  [ 0 байт/сек ]  
  
Аватара пользователя
Главный редактор
Главный редактор
 
Раздал: 83.18 ТБ
Скачал: 3.76 ТБ
Ратио: 22.541
Сообщения: 214001
Стаж: 8 лет 8 месяцев 26 дней
Откуда: Санкт-Петербург


Теория Большого Взрыва

1 сезон —
2 сезон —
3 сезон —
Год выхода в эфир: 2009
Страна: США
Жанр: комедия
Продолжительность: 03 эпизода по ~ 22 минуты
Перевод: Профессиональный (многоголосый, закадровый)
Режиссер: Джеймс Барроус
В ролях: Джонни Галэки (Leonard Hofstadter), Джим Парсонс (Sheldon Cooper), Кейли Куоко (Penny), Саймон Хелберг (Howard Wolowitz), Кунал Нэйэр (Raj Koothrappali)
Два блестящих физика, Леонард и Шелдон, «великие умы», которые понимают как «работает вселенная». Но их гениальность ничуть не помогает им общаться с людьми, особенно с женщинами. Всё начинает меняться, когда напротив них поселяется красавица Пенни. Когда Леонард и Шелдон встречают Пенни, Леонард сразу же начинает интересоваться ею. Он видит в общении с Пенни огромную перспективу, вплоть до любви, однако Шелдон понимает, что мечтам его друга не суждено сбыться. Стоит также отметить пару странных друзей этих физиков: Воловец, который любит употреблять фразы на разных языках, включая русский, и Раджеш Кутрапали, теряющий дар речи при виде женщин.
Озвучено: Cтудия «Novamedia» по заказу телеканала СТС

Качество: BDRip 720p [CtrlHD]
Формат: MKV
Видео кодек: x264
Аудио кодек: AС3
Видео: x264, 1280x720, 23.976 fps, ~6Mbps, 0.299 bit/pixel
Аудио #1: 48 kHz, AC3 Dolby Digital, 2.0 ch, 192 kbps avg|СТС|
Аудио #2: 48 kHz, AC3 Dolby Digital, 5.1 ch, 640 kbps avg|Оригинал|
Субтитры: есть (Русские / Английские)
Синхронизация Rus субтитров: uxTuaHgp


3x01. The Electric Can Opener Fluctuation
3x02. The Jiminy Conjecture
3x03. The Gothowitz Deviation
3x04. The Pirate Solution
3x05. The Creepy Candy Coating Corollary
3x06. The Cornhusker Vortex
3x07. The Guitarist Amplification
3x08. The Adhesive Duck Deficiency
3x09. The Vengeance Formulation
3x10. The Gorilla Experiment
3x11. The Maternal Congruence
3x12. The Psychic Vortex
3x13. The Bozeman Reaction
3x14. The Einstein Approximation
3x15. The Large Hadron Collision
3x16. The Excelsior Acquisition
3x17. The Precious Fragmentation
3x18. The Pants Alternative
3x19. The Wheaton Recurrence
3x20. The Spaghetti Catalyst
3x21. The Plimpton Stimulation
3x22. The Staircase Implementation
3x23. The Lunar Excitation

Код:
Код: Выделить всё
General
Complete name                    : E:\The Big Bang Theory S03 BDRip 720p\The.Big.Bang.Theory.S03E01.720p.BluRay.DD5.1.x264-CtrlHD.mkv
Format                           : Matroska
File size                        : 1.12 GiB
Duration                         : 21mn 35s
Overall bit rate                 : 7 431 Kbps
Encoded date                     : UTC 2011-05-13 16:04:12
Writing application              : mkvmerge v3.3.0 ('Language') built on Mar 24 2010 14:59:24
Writing library                  : libebml v0.8.0 + libmatroska v0.9.0
Video
ID                               : 1
Format                           : AVC
Format/Info                      : Advanced Video Codec
Format profile                   : High@L4.1
Format settings, CABAC           : Yes
Format settings, ReFrames        : 9 frames
Muxing mode                      : Container profile=Unknown@4.1
Codec ID                         : V_MPEG4/ISO/AVC
Duration                         : 21mn 34s
Bit rate                         : 6 452 Kbps
Nominal bit rate                 : 6 604 Kbps
Width                            : 1 280 pixels
Height                           : 720 pixels
Display aspect ratio             : 16:9
Frame rate                       : 23.976 fps
Resolution                       : 8 bits
Colorimetry                      : 4:2:0
Scan type                        : Progressive
Bits/(Pixel*Frame)               : 0.292
Stream size                      : 995 MiB (87%)
Title                            : The Big Bang Theory S03 E01 The Electric Can Opener Fluctuation
Writing library                  : x264 core 80 r1376M 3feaec2
Encoding settings                : cabac=1 / ref=9 / deblock=1:-3:-3 / analyse=0x3:0x133 / me=umh / subme=10 / psy=1 / psy_rd=1.0:0.3 / mixed_ref=1 / me_range=24 / chroma_me=1 / trellis=2 / 8x8dct=1 / cqm=0 / deadzone=21,11 / fast_pskip=0 / chroma_qp_offset=-4 / threads=12 / sliced_threads=0 / nr=0 / decimate=0 / mbaff=0 / constrained_intra=0 / bframes=6 / b_pyramid=0 / b_adapt=2 / b_bias=0 / direct=3 / wpredb=1 / wpredp=2 / keyint=240 / keyint_min=24 / scenecut=40 / rc_lookahead=60 / rc=2pass / mbtree=1 / bitrate=6604 / ratetol=1.0 / qcomp=0.80 / qpmin=10 / qpmax=51 / qpstep=4 / cplxblur=20.0 / qblur=0.5 / vbv_maxrate=40000 / vbv_bufsize=30000 / ip_ratio=1.20 / aq=1:0.50
Language                         : English
Audio #1
ID                               : 2
Format                           : AC-3
Format/Info                      : Audio Coding 3
Codec ID                         : A_AC3
Duration                         : 21mn 35s
Bit rate mode                    : Constant
Bit rate                         : 192 Kbps
Channel(s)                       : 2 channels
Channel positions                : L R
Sampling rate                    : 48.0 KHz
Stream size                      : 29.6 MiB (3%)
Title                            : AC3 2.0 @ 192 kbps [NovaMedia]
Language                         : Russian
Audio #2
ID                               : 3
Format                           : AC-3
Format/Info                      : Audio Coding 3
Codec ID                         : A_AC3
Duration                         : 21mn 35s
Bit rate mode                    : Constant
Bit rate                         : 640 Kbps
Channel(s)                       : 6 channels
Channel positions                : Front: L C R, Surround: L R, LFE
Sampling rate                    : 48.0 KHz
Stream size                      : 98.8 MiB (9%)
Title                            : AC3 5.1 @ 640 kbps
Language                         : English
Text #1
ID                               : 4
Format                           : UTF-8
Codec ID                         : S_TEXT/UTF8
Codec ID/Info                    : UTF-8 Plain Text
Language                         : English
Text #2
ID                               : 5
Format                           : UTF-8
Codec ID                         : S_TEXT/UTF8
Codec ID/Info                    : UTF-8 Plain Text
Language                         : Russian


Все раздачи сериала
Не забывайте говорить Спасибо. Не уходите с раздачи!   
Торрент: Зарегистрирован [13 май 2011, 11:34]
Статус:
Проверен
 
.torrent скачан: 0 раз
Хэш: e9a7e9c881f8dbc9f5ebc0906ba7882bc8de39c1
Размер: 25.7 ГБ (27 590 923 927 байт)
   Стать Автором раздачи
   
Цитата
  • Похожие торренты
    Ответы
    Просмотры
    Последнее сообщение

Вернуться в Теория большого взрыва / The Big Bang Theory

Кто сейчас на конференции

Сейчас эту тему просматривают: нет зарегистрированных пользователей и гости: 1