Теория Большого Взрыва / The Big Bang Theory / Сезон: 2 / Серии: 1-23 (23) (Марк Сендроуски) [2008-2009, США, Комедия, WEB-DL 720p] VO (Кураж-Бамбей) + Original

 Статистика раздачи 
Размер: 16.15 ГБ   |  Зарегистрирован: 20 янв 2012, 07:24   |   .torrent скачан: 0 раз
Сидеров: 0  [ 0 байт/сек ]     Личеров: 0  [ 0 байт/сек ]  
  
Аватара пользователя
Главный редактор
Главный редактор
 
Раздал: 83.18 ТБ
Скачал: 3.76 ТБ
Ратио: 22.543
Сообщения: 213816
Стаж: 8 лет 8 месяцев 24 дня
Откуда: Санкт-Петербург


the BiG BANG THEORY
Сезон 2
Страна: США
Год выпуска: 2008-2009
Жанр: Комедия
Продолжительность: ~22 минуты серия
Оригинальная дорожка: Есть
Перевод: Одноголосый - по версии "Кураж-Бамбей"
Режиссёр: Chuck Lorre, Bill Prady
В ролях: Джим Парсонс / Jim Parsons (Sheldon), Джонни Галекки / Johnny Galecki (Leonard), Кейли Куоко / Kaley Cuoco (Penny), Саймон Хельберг / Simon Helberg (Howard Wolowitz), Кунал Найяр / Kunal Nayyar (Rajesh Koothrappali) и др.
Описание:
Два блестящих физика, Леонард и Шелдон, «великие умы», которые понимают как «работает вселенная». Но их гениальность ничуть не помогает им общаться с людьми, особенно с женщинами. Всё начинает меняться, когда напротив них поселяется красавица Пенни.
Когда Леонард и Шелдон встречают Пенни, Леонард сразу же начинает интересоваться ею. Он видит в общении с Пенни огромную перспективу… вплоть до любви, однако Шелдон понимает, что мечтам его друга не суждено сбыться.
Стоит также отметить пару странных друзей этих физиков: Воловиц, который любит употреблять фразы на разных языках, включая русский, и Раджеш Кутраппали, теряющий дар речи при виде женщин.

S02E01 - The Bad Fish Paradigm
S02E02 - The Codpiece Topology
S02E03 - The Barbarian Sublimation
S02E04 - The Griffin Equivalency
S02E05 - The Euclid Alternative
S02E06 - The Cooper-Nowitzki Theorem
S02E07 - The Panty Pinata Polarization
S02E08 - The Lizard-Spock Expansion
S02E09 - The White Asparagus Triangulation
S02E10 - The Vartabedian Conundrum
S02E11 - The Bath Item Gift Hypothesis
S02E12 - The Killer Robot Instability
S02E13 - The Friendship Algorithm
S02E14 - The Financial Permeability
S02E15 - The Maternal Capacitance
S02E16 - The Cushion Saturation
S02E17 - The Terminator Decoupling
S02E18 - The Work Song Nanocluster
S02E19 - The Dead Hooker Juxtaposition
S02E20 - The Hofstadter Isotope
S02E21 - The Vegas Renormalization
S02E22 - The Classified Materials Turbulence
S02E23 - The Monopolar Expedition

Качество: WEB-DL 720p
Формат: MKV
Видео: H.264, 1280x720, 23.976 fps, ~4000 Kbps
Аудио 1: AC3 5.1, 48.0 khz, 384 Kbps - Русский "Кураж-Бамбей"
AC3 2.0, 48.0 khz, 192 Kbps - Русский "Кураж-Бамбей" (2-5 серии)
Аудио 2: AC3 5.1, 48.0 khz, 384 Kbps - Оригинал
Код: Выделить всё
[color=gray]General
Format                           : Matroska
File size                        : 762 MiB
Duration                         : 21mn 51s
Overall bit rate                 : 4 877 Kbps
Movie name                       : The Big Bang Theory S02E01 The Bad Fish Paradigm
Encoded date                     : UTC 2012-01-19 14:44:52
Writing application              : mkvmerge v5.0.1 ('Es ist Sommer') built on Oct  9 2011 11:55:43
Writing library                  : libebml v1.2.2 + libmatroska v1.3.0
[/color]Video
ID                               : 1
Format                           : AVC
Format/Info                      : Advanced Video Codec
Format profile                   : High@L3.1
Format settings, CABAC           : No
Format settings, ReFrames        : 2 frames
Format settings, GOP             : M=2, N=32
Muxing mode                      : Header stripping
Codec ID                         : V_MPEG4/ISO/AVC
Duration                         : 21mn 51s
Bit rate                         : 4 012 Kbps
Width                            : 1 280 pixels
Height                           : 718 pixels
Display aspect ratio             : 16:9
Frame rate                       : 23.976 fps
Color space                      : YUV
Chroma subsampling               : 4:2:0
Bit depth                        : 8 bits
Scan type                        : Progressive
Bits/(Pixel*Frame)               : 0.182
Stream size                      : 627 MiB (82%)
Language                         : English
Color primaries                  : BT.709-5, BT.1361, IEC 61966-2-4, SMPTE RP177
Transfer characteristics         : BT.709-5, BT.1361
Matrix coefficients              : BT.709-5, BT.1361, IEC 61966-2-4 709, SMPTE RP177
Audio #1
ID                               : 2
Format                           : AC-3
Format/Info                      : Audio Coding 3
Mode extension                   : CM (complete main)
Muxing mode                      : Header stripping
Codec ID                         : A_AC3
Duration                         : 21mn 51s
Bit rate mode                    : Constant
Bit rate                         : 384 Kbps
Channel(s)                       : 6 channels
Channel positions                : Front: L C R, Side: L R, LFE
Sampling rate                    : 48.0 KHz
Bit depth                        : 16 bits
Compression mode                 : Lossy
Stream size                      : 60.0 MiB (8%)
Title                            : AC3 5.1 @ 384 kbps [Кураж-Бамбей]
Language                         : Russian
Audio #2
ID                               : 3
Format                           : AC-3
Format/Info                      : Audio Coding 3
Mode extension                   : CM (complete main)
Muxing mode                      : Header stripping
Codec ID                         : A_AC3
Duration                         : 21mn 51s
Bit rate mode                    : Constant
Bit rate                         : 384 Kbps
Channel(s)                       : 6 channels
Channel positions                : Front: L C R, Side: L R, LFE
Sampling rate                    : 48.0 KHz
Bit depth                        : 16 bits
Compression mode                 : Lossy
Stream size                      : 60.0 MiB (8%)
Title                            : AC3 5.1 @ 384 kbps
Language                         : English
Код: Выделить всё
[color=gray]General
Format                           : Matroska
File size                        : 734 MiB
Duration                         : 21mn 16s
Overall bit rate                 : 4 824 Kbps
Movie name                       : The Big Bang Theory S02E02 The Codpiece Topology
Encoded date                     : UTC 2012-01-16 14:34:03
Writing application              : mkvmerge v5.0.1 ('Es ist Sommer') built on Oct  9 2011 11:55:43
Writing library                  : libebml v1.2.2 + libmatroska v1.3.0
[/color]Video
ID                               : 1
Format                           : AVC
Format/Info                      : Advanced Video Codec
Format profile                   : High@L3.1
Format settings, CABAC           : No
Format settings, ReFrames        : 2 frames
Format settings, GOP             : M=2, N=32
Muxing mode                      : Header stripping
Codec ID                         : V_MPEG4/ISO/AVC
Duration                         : 21mn 16s
Bit rate                         : 4 152 Kbps
Width                            : 1 280 pixels
Height                           : 718 pixels
Display aspect ratio             : 16:9
Frame rate                       : 23.976 fps
Color space                      : YUV
Chroma subsampling               : 4:2:0
Bit depth                        : 8 bits
Scan type                        : Progressive
Bits/(Pixel*Frame)               : 0.188
Stream size                      : 632 MiB (86%)
Language                         : English
Color primaries                  : BT.709-5, BT.1361, IEC 61966-2-4, SMPTE RP177
Transfer characteristics         : BT.709-5, BT.1361
Matrix coefficients              : BT.709-5, BT.1361, IEC 61966-2-4 709, SMPTE RP177
Audio #1
ID                               : 2
Format                           : AC-3
Format/Info                      : Audio Coding 3
Mode extension                   : CM (complete main)
Muxing mode                      : Header stripping
Codec ID                         : A_AC3
Duration                         : 21mn 16s
Bit rate mode                    : Constant
Bit rate                         : 192 Kbps
Channel(s)                       : 2 channels
Channel positions                : Front: L R
Sampling rate                    : 48.0 KHz
Bit depth                        : 16 bits
Compression mode                 : Lossy
Delay relative to video          : 2s 800ms
Stream size                      : 29.2 MiB (4%)
Title                            : AC3 2.0 @ 192 kbps [Кураж-Бамбей]
Language                         : Russian
Audio #2
ID                               : 3
Format                           : AC-3
Format/Info                      : Audio Coding 3
Mode extension                   : CM (complete main)
Muxing mode                      : Header stripping
Codec ID                         : A_AC3
Duration                         : 21mn 16s
Bit rate mode                    : Constant
Bit rate                         : 384 Kbps
Channel(s)                       : 6 channels
Channel positions                : Front: L C R, Side: L R, LFE
Sampling rate                    : 48.0 KHz
Bit depth                        : 16 bits
Compression mode                 : Lossy
Stream size                      : 58.4 MiB (8%)
Title                            : AC3 5.1 @ 384 kbps
Language                         : English
Код: Выделить всё
[color=gray]General
Format                           : Matroska
File size                        : 734 MiB
Duration                         : 21mn 1s
Overall bit rate                 : 4 880 Kbps
Movie name                       : The Big Bang Theory S02E06 The Cooper-Nowitzki Theorem
Encoded date                     : UTC 2012-01-18 14:01:48
Writing application              : mkvmerge v5.0.1 ('Es ist Sommer') built on Oct  9 2011 11:55:43
Writing library                  : libebml v1.2.2 + libmatroska v1.3.0
[/color]Video
ID                               : 1
Format                           : AVC
Format/Info                      : Advanced Video Codec
Format profile                   : High@L3.1
Format settings, CABAC           : No
Format settings, ReFrames        : 2 frames
Format settings, GOP             : M=2, N=32
Muxing mode                      : Header stripping
Codec ID                         : V_MPEG4/ISO/AVC
Duration                         : 21mn 1s
Bit rate                         : 4 015 Kbps
Width                            : 1 280 pixels
Height                           : 718 pixels
Display aspect ratio             : 16:9
Frame rate                       : 23.976 fps
Color space                      : YUV
Chroma subsampling               : 4:2:0
Bit depth                        : 8 bits
Scan type                        : Progressive
Bits/(Pixel*Frame)               : 0.182
Stream size                      : 604 MiB (82%)
Language                         : English
Color primaries                  : BT.709-5, BT.1361, IEC 61966-2-4, SMPTE RP177
Transfer characteristics         : BT.709-5, BT.1361
Matrix coefficients              : BT.709-5, BT.1361, IEC 61966-2-4 709, SMPTE RP177
Audio #1
ID                               : 2
Format                           : AC-3
Format/Info                      : Audio Coding 3
Mode extension                   : CM (complete main)
Muxing mode                      : Header stripping
Codec ID                         : A_AC3
Duration                         : 21mn 1s
Bit rate mode                    : Constant
Bit rate                         : 384 Kbps
Channel(s)                       : 6 channels
Channel positions                : Front: L C R, Side: L R, LFE
Sampling rate                    : 48.0 KHz
Bit depth                        : 16 bits
Compression mode                 : Lossy
Stream size                      : 57.7 MiB (8%)
Title                            : AC3 5.1 @ 384 kbps [Кураж-Бамбей]
Language                         : Russian
Audio #2
ID                               : 3
Format                           : AC-3
Format/Info                      : Audio Coding 3
Mode extension                   : CM (complete main)
Muxing mode                      : Header stripping
Codec ID                         : A_AC3
Duration                         : 21mn 1s
Bit rate mode                    : Constant
Bit rate                         : 384 Kbps
Channel(s)                       : 6 channels
Channel positions                : Front: L C R, Side: L R, LFE
Sampling rate                    : 48.0 KHz
Bit depth                        : 16 bits
Compression mode                 : Lossy
Stream size                      : 57.7 MiB (8%)
Title                            : AC3 5.1 @ 384 kbps
Language                         : English

Доп. информацияДорога Куража с первой серии отсюда
Для серий 2-5 дорожки Куража взяла с этого DVD5 - английская речь не перебивает Русскую, голос переводчика слышно хорошо
[*]Дороги для 6-23 серий отсюдаДругие сезоны в качестве Web-DL 720pСезон 1 "Кураж Бамбей"
Сезон 4 "Кураж Бамбей"
Сезон 5 "Кураж Бамбей"
[*]Предыдущие и альтернативные раздачи
Sample (multi-up.com)
Не забывайте говорить Спасибо. Не уходите с раздачи!   
Торрент: Зарегистрирован [20 янв 2012, 07:24]
Статус:
Проверен
 
.torrent скачан: 0 раз
Хэш: 068481993788fe31c3c83d1087a011f0d2943231
Размер: 16.15 ГБ (17 341 313 981 байт)
   Стать Автором раздачи
   
Цитата
  • Похожие торренты
    Ответы
    Просмотры
    Последнее сообщение

Вернуться в Теория большого взрыва / The Big Bang Theory

Кто сейчас на конференции

Сейчас эту тему просматривают: нет зарегистрированных пользователей и гости: 1