Теория Большого Взрыва / The Big Bang Theory / Сезон: 1 / Серии: 1-17 из 17 (Джеймс Барроус) [2007, Ситком, BDRemux 1080p] VO (Кураж-Бамбей по заказу Paramount Comedy (2012)) + VO (Кураж-Бамбей (1 версия)) + MVO (Новамедиа по заказу СТС) + Original

 Статистика раздачи 
Размер: 53.26 ГБ   |  Зарегистрирован: 31 июл 2014, 15:06   |   .torrent скачан: 0 раз
Сидеров: 0  [ 0 байт/сек ]     Личеров: 0  [ 0 байт/сек ]  
  
Аватара пользователя
Главный редактор
Главный редактор
 
Раздал: 83.18 ТБ
Скачал: 3.76 ТБ
Ратио: 22.541
Сообщения: 214001
Стаж: 8 лет 8 месяцев 26 дней
Откуда: Санкт-Петербург

Теория Большого Взрыва / The Big Bang Theory
Год выпуска: 2007
Страна: США
Жанр: Ситком
Продолжительность: ~00:22:00 (одна серия)
Перевод: Профессиональный (одноголосый закадровый) Кураж-Бамбей по заказу Paramount Comedy (2012)
Перевод 2: Профессиональный (одноголосый закадровый) Кураж-Бамбей
Перевод 3: Профессиональный (многоголосый закадровый) Новамедиа по заказу СТС
Перевод 4: Профессиональный (многоголосый закадровый) HTB
Оригинал: English AC3 6ch 640Kbps
Оригинал: English DTS-HD MA 5.1
Режиссёр: Джеймс Барроус
В ролях: Джонни Галэки (Леонард), Джим Парсонс (Шелдон), Кейли Куоко (Пэнни), Саймон Хелберг (Говард), Кунал Нэйэр (Радж)
Описание:
Два блестящих физика, Леонард и Шелдон, «великие умы», которые понимают как «работает вселенная». Но их гениальность ничуть не помогает им общаться с людьми, особенно с женщинами. Всё начинает меняться, когда напротив них поселяется красавица Пенни. Когда Леонард и Шелдон встречают Пенни, Леонард сразу же начинает интересоваться ею. Он видит в общении с Пенни огромную перспективу, вплоть до любви, однако Шелдон понимает, что мечтам его друга не суждено сбыться. Стоит также отметить пару странных друзей этих физиков: Воловец, который любит употреблять фразы на разных языках, включая русский, и Раджеш Кутрапали, теряющий дар речи при виде женщин.
Доп. информация:
Мои релизы других сезонов
1 сезон BDRemux 1080p
2 сезон BDRemux 1080p
3 сезон BDRemux 1080p
4 сезон BDRemux 1080p
5 сезон BDRemux 1080p
6 сезон BDRemux 1080p
7 сезон BDRemux 1080p
8 сезон BDRemux 1080p
1 сезон BDRip 1080p 10bit
2 сезон BDRip 1080p 10bit
3 сезон BDRip 1080p 10bit
4 сезон BDRip 1080p 10bit
5 сезон BDRip 1080p 10bit
6 сезон BDRip 1080p 10bit
7 сезон BDRip 1080p 10bit
8 сезон BDRip 1080p 10bit
Ссылка на предыдущие и альтернативные раздачи: https://rutracker.org/forum/tracker.php?f=2396,189,2366,842&nm=%D0%A2%D0%B5%D...%2F+The+Big+Bang
Сэмпл: http://multi-up.com/989737
Качество: BDRemux 1080p
Контейнер: MKV
Видео: MPEG4 Video (H264) 1920x1080 23.976fps ~20000Kbps (Variable)
Аудио 1: Dolby AC3 48000Hz stereo 192kbps, Paramount Comedy (Kuraj-Bambey V2)
Аудио 2: Dolby AC3 48000Hz stereo 192kbps, Kuraj-Bambey V1
Аудио 3: Dolby AC3 48000Hz stereo 192kbps, Novamedia (CTC)
Аудио 4: Dolby AC3 48000Hz stereo 192kbps, HTB
Аудио 5: Dolby AC3 6ch 640Kbps English
Аудио 6: English, 48.0 KHz, DTS-HD, 6 ch, 1509 Kbps | English
Субтитры: softsub (SRT) Eng, Rus
1x01. Pilot
1x02. The Big Bran Hypothesis
1x03. The Fuzzy Boots Corollary
1x04. The Luminous Fish Effect
1x05. The Hamburger Postulate
1x06. The Middle Earth Paradigm
1x07. The Dumpling Paradox
1x08. The Grasshopper Experiment
1x09. The Cooper-Hofstadter Polarization
1x10. The Loobenfeld Decay
1x11. The Pancake Batter Anomaly
1x12. The Jerusalem Duality
1x13. The Bat Jar Conjecture
1x14. The Nerdvana Annihilation
1x15. The Pork Chop Indeterminacy
1x16. The Peanut Reaction
1x17. The Tangerine Factor
General
Unique ID : 195020792785903816774847221929519114112 (0x92B7A37224E4FFED9447A16130406780)
Complete name : G:\reliz\out\The.Big.Bang.Theory.Season.1\S01E01.The.Pilot.mkv
Format : Matroska
Format version : Version 4 / Version 2
File size : 3.44 GiB
Duration : 22mn 58s
Overall bit rate mode : Variable
Overall bit rate : 21.4 Mbps
Movie name : THE BIG BANG THEORY SEASON 1 DISC 1
Encoded date : UTC 2014-07-31 04:50:15
Writing application : mkvmerge v7.0.0 ('Where We Going') 64bit built on Jun 9 2014 15:16:27
Writing library : libebml v1.3.0 + libmatroska v1.4.1
Cover : Yes
_STATISTICS_WRITING_APP : mkvmerge v7.0.0 ('Where We Going') 64bit built on Jun 9 2014 15:16:27
_STATISTICS_WRITING_DATE_UTC : 2014-07-31 04:50:15
_STATISTICS_TAGS : BPS DURATION NUMBER_OF_FRAMES NUMBER_OF_BYTES
DURATION : 00:22:52.453000000
NUMBER_OF_FRAMES : 406
NUMBER_OF_BYTES : 15893
Video
ID : 1
Format : AVC
Format/Info : Advanced Video Codec
Format profile : High@L4.0
Format settings, CABAC : Yes
Format settings, ReFrames : 2 frames
Codec ID : V_MPEG4/ISO/AVC
Duration : 22mn 58s
Bit rate mode : Variable
Width : 1 920 pixels
Height : 1 080 pixels
Display aspect ratio : 16:9
Frame rate mode : Constant
Frame rate : 23.976 fps
Color space : YUV
Chroma subsampling : 4:2:0
Bit depth : 8 bits
Scan type : Progressive
Title : The Pilot
Language : English
Default : Yes
Forced : No
_STATISTICS_WRITING_APP : mkvmerge v7.0.0 ('Where We Going') 64bit built on Jun 9 2014 15:16:27
_STATISTICS_WRITING_DATE_UTC : 2014-07-31 04:50:15
_STATISTICS_TAGS : BPS DURATION NUMBER_OF_FRAMES NUMBER_OF_BYTES
DURATION : 00:22:57.418000000
NUMBER_OF_FRAMES : 33025
NUMBER_OF_BYTES : 3065471639
Audio #1
ID : 2
Format : AC-3
Format/Info : Audio Coding 3
Mode extension : CM (complete main)
Format settings, Endianness : Big
Codec ID : A_AC3
Duration : 22mn 58s
Bit rate mode : Constant
Bit rate : 192 Kbps
Channel(s) : 2 channels
Channel positions : Front: L R
Sampling rate : 48.0 KHz
Bit depth : 16 bits
Compression mode : Lossy
Stream size : 31.5 MiB (1%)
Title : Paramount Comedy (Kuraj-Bambey v2)
Language : Russian
Default : Yes
Forced : No
Audio #2
ID : 3
Format : AC-3
Format/Info : Audio Coding 3
Mode extension : CM (complete main)
Format settings, Endianness : Big
Codec ID : A_AC3
Duration : 22mn 58s
Bit rate mode : Constant
Bit rate : 192 Kbps
Channel(s) : 2 channels
Channel positions : Front: L R
Sampling rate : 48.0 KHz
Bit depth : 16 bits
Compression mode : Lossy
Stream size : 31.5 MiB (1%)
Title : Kuraj-Bambey v1
Language : Russian
Default : No
Forced : No
Audio #3
ID : 4
Format : AC-3
Format/Info : Audio Coding 3
Mode extension : CM (complete main)
Format settings, Endianness : Big
Codec ID : A_AC3
Duration : 22mn 58s
Bit rate mode : Constant
Bit rate : 192 Kbps
Channel(s) : 2 channels
Channel positions : Front: L R
Sampling rate : 48.0 KHz
Bit depth : 16 bits
Compression mode : Lossy
Stream size : 31.5 MiB (1%)
Title : Novamedia (CTC)
Language : Russian
Default : No
Forced : No
Audio #4
ID : 5
Format : AC-3
Format/Info : Audio Coding 3
Mode extension : CM (complete main)
Format settings, Endianness : Big
Codec ID : A_AC3
Duration : 22mn 58s
Bit rate mode : Constant
Bit rate : 192 Kbps
Channel(s) : 2 channels
Channel positions : Front: L R
Sampling rate : 48.0 KHz
Bit depth : 16 bits
Compression mode : Lossy
Stream size : 31.5 MiB (1%)
Title : HTB
Language : Russian
Default : No
Forced : No
Audio #5
ID : 6
Format : AC-3
Format/Info : Audio Coding 3
Mode extension : CM (complete main)
Format settings, Endianness : Big
Codec ID : A_AC3
Duration : 22mn 58s
Bit rate mode : Constant
Bit rate : 640 Kbps
Channel(s) : 6 channels
Channel positions : Front: L C R, Side: L R, LFE
Sampling rate : 48.0 KHz
Bit depth : 16 bits
Compression mode : Lossy
Stream size : 105 MiB (3%)
Title : English AC3 6ch 640Kbps
Language : English
Default : No
Forced : No
Audio #6
ID : 7
Format : DTS
Format/Info : Digital Theater Systems
Format profile : MA / Core
Mode : 16
Format settings, Endianness : Big
Codec ID : A_DTS
Duration : 22mn 58s
Bit rate mode : Variable
Bit rate : Unknown / 1 509 Kbps
Channel(s) : 6 channels
Channel positions : Front: L C R, Side: L R, LFE
Sampling rate : 48.0 KHz
Bit depth : 16 bits
Compression mode : Lossless / Lossy
Title : English DTS-HD MA 5.1
Language : English
Default : No
Forced : No
Text #1
ID : 8
Format : UTF-8
Codec ID : S_TEXT/UTF8
Codec ID/Info : UTF-8 Plain Text
Title : Russian
Language : Russian
Default : No
Forced : No
Text #2
ID : 9
Format : UTF-8
Codec ID : S_TEXT/UTF8
Codec ID/Info : UTF-8 Plain Text
Title : English
Language : English
Default : Yes
Forced : No
Menu
00:00:00.000 : en:Chapter 01
00:06:24.050 : en:Chapter 02
00:15:49.114 : en:Chapter 03
00:21:37.587 : en:Chapter 04
00:22:29.556 : en:Chapter 05


Постер
Не забывайте говорить Спасибо. Не уходите с раздачи!   
Торрент: Зарегистрирован [31 июл 2014, 15:06]
Статус:
Проверен
 
.torrent скачан: 0 раз
Хэш: 19418dc386873adb3721b2b3531a5d148c6c5eba
Размер: 53.26 ГБ (57 189 827 134 байт)
   Стать Автором раздачи
   
Цитата
  • Похожие торренты
    Ответы
    Просмотры
    Последнее сообщение

Вернуться в Теория большого взрыва / The Big Bang Theory

Кто сейчас на конференции

Сейчас эту тему просматривают: нет зарегистрированных пользователей и гости: 1