Теория Большого Взрыва / The Big Bang Theory / Сезон: 3 / Серии: 1-23 (23) (Марк Сендроуски) [2009-2010, США, Ситком, BDRip 720p] VO (Кураж-Бамбей) + Sub (Rus, Eng)

 Статистика раздачи 
Размер: 25.7 ГБ   |  Зарегистрирован: 26 сен 2010, 05:58   |   .torrent скачан: 0 раз
Сидеров: 0  [ 0 байт/сек ]     Личеров: 0  [ 0 байт/сек ]  
  
Аватара пользователя
Главный редактор
Главный редактор
 
Раздал: 83.18 ТБ
Скачал: 3.76 ТБ
Ратио: 22.543
Сообщения: 213816
Стаж: 8 лет 8 месяцев 24 дня
Откуда: Санкт-Петербург

Теория Большого Взрыва / The Big Bang Theory [Season 3]
«Smart Is The New Sexy.»

Год выпуска: 2009
Страна: США | Warner Bros. Television
Жанр: Ситком
Продолжительность: ~00:23 x23 | 23 x1.12 ГБ
Перевод: Профессиональный (одноголосый, закадровый) - Кураж-Бамбей
Оригинальная дорожка: Английская
Субтитры: русские, английские
Автор идеи: Чак Лорри
В ролях: Джонни Галаки, Джим Парсонс, Кейли Куоко, Саймон Хелберг, Кунал Найар, Сара Гилберт
Описание: Два блестящих физика, Леонард и Шелдон, «великие умы», которые понимают как «работает вселенная». Но их гениальность ничуть не помогает им общаться с людьми, особенно с женщинами. Всё начинает меняться, когда напротив них поселяется красавица Пенни.
Когда Леонард и Шелдон встречают Пенни, Леонард сразу же начинает интересоваться ею. Он видит в общении с Пенни огромную перспективу… вплоть до любви, однако Шелдон понимает, что мечтам его друга не суждено сбыться.
Стоит также отметить пару странных друзей этих физиков: Воловиц, который любит употреблять фразы на разных языках, включая русский, и Раджеш Кутраппали, теряющий дар речи при виде женщин.
Релиз подготовил: uxTuaHgp
Все раздачи сериала | | The Big Bang Theory S03 BDRip [1080p]
Качество: BDRip [720p]
Формат: MKV
Видео кодек: H.264
Аудио кодек: AC3
Видео: 1280x720, 23.976 fps, ~6Mbps, 0.299 bit/pixel (CtrlHD)
Аудио #1: AC3 2.0, 48 KHz, 192 kbps |Кураж-Бамбей|
Аудио #2: AC3 5.1 48 KHz, 640 kbps |Оригинальная дорожка|
The Electric Can Opener Fluctuation
The Jiminy Conjecture
The Gothowitz Deviation
The Pirate Solution
The Creepy Candy Coating Corollary
The Cornhusker Vortex
The Guitarist Amplification
The Adhesive Duck Deficiency
The Vengeance Formulation
The Gorilla Experiment
The Maternal Congruence
The Psychic Vortex
The Bozeman Reaction
The Einstein Approximation
The Large Hadron Collision
The Excelsior Acquisition
The Precious Fragmentation
The Pants Alternative
The Wheaton Recurrence
The Spaghetti Catalyst
The Plimpton Stimulation
The Staircase Implementation
[*]The Lunar Excitation
Код:
Код: Выделить всё
Format                           : Matroska
File size                        : 1.12 GiB
Duration                         : 21mn 35s
Overall bit rate                 : 7 433 Kbps
Encoded date                     : UTC 2010-09-23 14:07:39
Writing application              : mkvmerge v2.5.3 ('Boogie') built on Mar  7 2009 15:00:41
Writing library                  : libebml v0.7.7 + libmatroska v0.8.1
Video
ID                               : 1
Format                           : AVC
Format/Info                      : Advanced Video Codec
Format profile                   : High@L4.1
Format settings, CABAC           : Yes
Format settings, ReFrames        : 9 frames
Muxing mode                      : Container profile=Unknown@4.1
Codec ID                         : V_MPEG4/ISO/AVC
Duration                         : 21mn 35s
Bit rate                         : 6 604 Kbps
Width                            : 1 280 pixels
Height                           : 720 pixels
Display aspect ratio             : 16:9
Frame rate                       : 23.976 fps
Color space                      : YUV
Chroma subsampling               : 4:2:0
Bit depth                        : 8 bits
Scan type                        : Progressive
Bits/(Pixel*Frame)               : 0.299
Stream size                      : 996 MiB (87%)
Title                            : The Big Bang Theory S03 E01 The Electric Can Opener Fluctuation
Writing library                  : x264 core 80 r1376M 3feaec2
Encoding settings                : cabac=1 / ref=9 / deblock=1:-3:-3 / analyse=0x3:0x133 / me=umh / subme=10 / psy=1 / psy_rd=1.0:0.3 / mixed_ref=1 / me_range=24 / chroma_me=1 / trellis=2 / 8x8dct=1 / cqm=0 / deadzone=21,11 / fast_pskip=0 / chroma_qp_offset=-4 / threads=12 / sliced_threads=0 / nr=0 / decimate=0 / mbaff=0 / constrained_intra=0 / bframes=6 / b_pyramid=0 / b_adapt=2 / b_bias=0 / direct=3 / wpredb=1 / wpredp=2 / keyint=240 / keyint_min=24 / scenecut=40 / rc_lookahead=60 / rc=2pass / mbtree=1 / bitrate=6604 / ratetol=1.0 / qcomp=0.80 / qpmin=10 / qpmax=51 / qpstep=4 / cplxblur=20.0 / qblur=0.5 / vbv_maxrate=40000 / vbv_bufsize=30000 / ip_ratio=1.20 / aq=1:0.50
Language                         : English
Audio #1
ID                               : 2
Format                           : AC-3
Format/Info                      : Audio Coding 3
Mode extension                   : CM (complete main)
Codec ID                         : A_AC3
Duration                         : 21mn 35s
Bit rate mode                    : Constant
Bit rate                         : 192 Kbps
Channel(s)                       : 2 channels
Channel positions                : Front: L R
Sampling rate                    : 48.0 KHz
Bit depth                        : 16 bits
Stream size                      : 29.6 MiB (3%)
Title                            : AC3 2.0 @ 192 kbps [Кураж-Бамбей]
Language                         : Russian
Audio #2
ID                               : 3
Format                           : AC-3
Format/Info                      : Audio Coding 3
Mode extension                   : CM (complete main)
Codec ID                         : A_AC3
Duration                         : 21mn 35s
Bit rate mode                    : Constant
Bit rate                         : 640 Kbps
Channel(s)                       : 6 channels
Channel positions                : Front: L C R, Side: L R, LFE
Sampling rate                    : 48.0 KHz
Bit depth                        : 16 bits
Stream size                      : 98.8 MiB (9%)
Title                            : AC3 5.1 @ 640 kbps
Language                         : English
Text #1
ID                               : 4
Format                           : UTF-8
Codec ID                         : S_TEXT/UTF8
Codec ID/Info                    : UTF-8 Plain Text
Language                         : English
Text #2
ID                               : 5
Format                           : UTF-8
Codec ID                         : S_TEXT/UTF8
Codec ID/Info                    : UTF-8 Plain Text
Language                         : Russian


Не забывайте говорить Спасибо. Не уходите с раздачи!   
Торрент: Зарегистрирован [26 сен 2010, 05:58]
Статус:
Проверен
 
.torrent скачан: 0 раз
Хэш: e3bb226c4372b76cf55a52d5aa4a2db9dd2bb6d3
Размер: 25.7 ГБ (27 596 430 196 байт)
   Стать Автором раздачи
   
Цитата
  • Похожие торренты
    Ответы
    Просмотры
    Последнее сообщение

Вернуться в Теория большого взрыва / The Big Bang Theory

Кто сейчас на конференции

Сейчас эту тему просматривают: нет зарегистрированных пользователей и гости: 1