Теория Большого Взрыва / The Big Bang Theory / Сезон: 1 / Серии: 1-17 (17) (Марк Сендроуски) [2007, США, комедия, BDRip 720p] (Novamedia, Кураж-Бамбей, Paramount Comedy (Кураж-Бамбей v2), НТВ)

 Статистика раздачи 
Размер: 21.22 ГБ   |  Зарегистрирован: 15 июл 2012, 14:05   |   .torrent скачан: 0 раз
Сидеров: 0  [ 0 байт/сек ]     Личеров: 0  [ 0 байт/сек ]  
  
Аватара пользователя
Главный редактор
Главный редактор
 
Раздал: 83.18 ТБ
Скачал: 3.76 ТБ
Ратио: 22.543
Сообщения: 213816
Стаж: 8 лет 8 месяцев 24 дня
Откуда: Санкт-Петербург

Теория Большого Взрыва / The Big Bang Theory

Оригинальное название: The Big Bang Theory
Русское название: Теория Большого Взрыва
Год выпуска: 2007
Страна: США
Жанр: комедия
Продолжительность: ~00:22:00 (одна серия)
Перевод:Профессиональный (многоголосый, закадровый) Новамедиа по заказу СТС
Профессиональный (одноголосый, закадровый) Кураж-Бамбей (1 версия)
Профессиональный (одноголосый, закадровый) Кураж-Бамбей по заказу Paramount Comedy (2012)
[*]Профессиональный (двухголосый, закадровый) НТВСубтитры: русские, английские
Режиссёр: Джеймс Барроус
В ролях: Джонни Галэки (Леонард), Джим Парсонс (Шелдон), Кейли Куоко (Пэнни), Саймон Хелберг (Говард), Кунал Нэйэр (Радж)
Описание: Два блестящих физика, Леонард и Шелдон, «великие умы», которые понимают как «работает вселенная». Но их гениальность ничуть не помогает им общаться с людьми, особенно с женщинами. Всё начинает меняться, когда напротив них поселяется красавица Пенни. Когда Леонард и Шелдон встречают Пенни, Леонард сразу же начинает интересоваться ею. Он видит в общении с Пенни огромную перспективу, вплоть до любви, однако Шелдон понимает, что мечтам его друга не суждено сбыться. Стоит также отметить пару странных друзей этих физиков: Воловец, который любит употреблять фразы на разных языках, включая русский, и Раджеш Кутрапали, теряющий дар речи при виде женщин.

Рип от DON.
Спасибо NovaFilm за дорожки с озвучкой СТС и р/г РиперАМ за озвучку НТВ.
Озвучка Кураж-Бамбея (v1) взята из самой первой раздачи HDTVRip'a.
Спасибо sk1987, zzz666_31_rus за запись второй версии Кураж-Бамбея.
Подогнанные 1 и 2 серия в одноголосой озвучке NovaFilmTV.
Спасибо jhonny2 за подгон субтитров. Ну и спасибо SerGoLeOne (т.е мне) за то, что свёл всё это добро.
Сэмпл: скачать
Качество: BDRip 720p
Формат: MKV
Видео кодек: H.264
Аудио кодек: AC3
Видео: H.264, 1280x720 (16:9), 23.976 fps, 5600 kbps, 0.407 bit/pixel
Аудио:русская (Novamedia по заказу СТС): Dolby AC3, 48 kHz, stereo, 192 kbps
русская (Кураж-Бамбей, 1 версия): Dolby AC3, 48 kHz, stereo, 192 kbps
русская (Кураж-Бамбей по заказу Paramount Comedy, 2012): Dolby AC3, 48 kHz, stereo, 192 kbps
русская (НТВ): Dolby AC3, 48 kHz, stereo, 192 kbps
[*]оригинал: Dolby AC3, 48 kHz, 6 ch, 640 kbpsСкриншоты:

1 сезон:
01. Pilot
02. The Big Bran Hypothesis
03. The Fuzzy Boots Corollary
04. The Luminous Fish Effect
05. The Hamburger Postulate
06. The Middle-Earth Paradigm
07. The Dumpling Paradox
08. The Grasshopper Experiment
09. The Cooper-Hofstadter Polarization
10. The Loobenfeld Decay
11. The Pancake Batter Anomaly
12. The Jerusalem Duality
13. The Bat Jar Conjecture
14. The Nerdvana Annihilation
15. The Shiksa Indeterminacy
16. The Peanut Reaction
17. The Tangerine Factor
Код:
Код: Выделить всё
General
Unique ID                                : 190505344266421443666885780786255188727 (0x8F51FEA53D3BE88DB94E8B2B27A352F7)
Complete name                            : O:\HD Video\The Big Bang Theory (BDRip l 720p l SerGoLeOne)\1 season\01. Pilot.mkv
Format                                   : Matroska
Format version                           : Version 1
File size                                : 1.67 GiB
Duration                                 : 22mn 58s
Overall bit rate                         : 10.4 Mbps
Encoded date                             : UTC 2012-07-20 08:33:31
Writing application                      : mkvmerge v2.3.0 ('Freak U') built on Sep  8 2008 18:32:16
Writing library                          : libebml v0.7.7 + libmatroska v0.8.1
Video
ID                                       : 1
Format                                   : AVC
Format/Info                              : Advanced Video Codec
Format profile                           : High@L4.1
Format settings, CABAC                   : Yes
Format settings, ReFrames                : 9 frames
Codec ID                                 : V_MPEG4/ISO/AVC
Duration                                 : 22mn 58s
Bit rate                                 : 9 000 Kbps
Width                                    : 1 280 pixels
Height                                   : 720 pixels
Display aspect ratio                     : 16:9
Frame rate mode                          : Constant
Frame rate                               : 23.976 fps
Color space                              : YUV
Chroma subsampling                       : 4:2:0
Bit depth                                : 8 bits
Scan type                                : Progressive
Bits/(Pixel*Frame)                       : 0.407
Stream size                              : 1.41 GiB (84%)
Writing library                          : x264 core 116 r2057 0ba8a9c
Encoding settings                        : cabac=1 / ref=9 / deblock=1:-3:-3 / analyse=0x3:0x133 / me=umh / subme=10 / psy=1 / psy_rd=1.00:0.00 / mixed_ref=1 / me_range=32 / chroma_me=1 / trellis=2 / 8x8dct=1 / cqm=0 / deadzone=21,11 / fast_pskip=0 / chroma_qp_offset=-2 / threads=14 / sliced_threads=0 / nr=0 / decimate=0 / interlaced=0 / bluray_compat=0 / constrained_intra=0 / bframes=7 / b_pyramid=2 / b_adapt=2 / b_bias=0 / direct=3 / weightb=1 / open_gop=0 / weightp=2 / keyint=250 / keyint_min=23 / scenecut=40 / intra_refresh=0 / rc_lookahead=40 / rc=2pass / mbtree=0 / bitrate=9000 / ratetol=1.0 / qcomp=0.65 / qpmin=0 / qpmax=40 / qpstep=4 / cplxblur=20.0 / qblur=0.5 / vbv_maxrate=50000 / vbv_bufsize=50000 / nal_hrd=none / ip_ratio=1.25 / pb_ratio=1.25 / aq=1:0.65
Language                                 : English
Default                                  : Yes
Forced                                   : No
Audio #1
ID                                       : 2
Format                                   : AC-3
Format/Info                              : Audio Coding 3
Mode extension                           : CM (complete main)
Format settings, Endianness              : Big
Codec ID                                 : A_AC3
Duration                                 : 22mn 58s
Bit rate mode                            : Constant
Bit rate                                 : 192 Kbps
Channel(s)                               : 2 channels
Channel positions                        : Front: L R
Sampling rate                            : 48.0 KHz
Bit depth                                : 16 bits
Compression mode                         : Lossy
Stream size                              : 31.5 MiB (2%)
Title                                    : Novamedia (CTC)
Language                                 : Russian
Default                                  : Yes
Forced                                   : No
Audio #2
ID                                       : 3
Format                                   : AC-3
Format/Info                              : Audio Coding 3
Mode extension                           : CM (complete main)
Format settings, Endianness              : Big
Codec ID                                 : A_AC3
Duration                                 : 22mn 58s
Bit rate mode                            : Constant
Bit rate                                 : 192 Kbps
Channel(s)                               : 2 channels
Channel positions                        : Front: L R
Sampling rate                            : 48.0 KHz
Bit depth                                : 16 bits
Compression mode                         : Lossy
Stream size                              : 31.5 MiB (2%)
Title                                    : Kuraj-Bambey v1
Language                                 : Russian
Default                                  : No
Forced                                   : No
Audio #3
ID                                       : 4
Format                                   : AC-3
Format/Info                              : Audio Coding 3
Mode extension                           : CM (complete main)
Format settings, Endianness              : Big
Codec ID                                 : A_AC3
Duration                                 : 22mn 58s
Bit rate mode                            : Constant
Bit rate                                 : 192 Kbps
Channel(s)                               : 2 channels
Channel positions                        : Front: L R
Sampling rate                            : 48.0 KHz
Bit depth                                : 16 bits
Compression mode                         : Lossy
Stream size                              : 31.5 MiB (2%)
Title                                    : Paramount Comedy (Kuraj-Bambey v2)
Language                                 : Russian
Default                                  : No
Forced                                   : No
Audio #4
ID                                       : 5
Format                                   : AC-3
Format/Info                              : Audio Coding 3
Mode extension                           : CM (complete main)
Format settings, Endianness              : Big
Codec ID                                 : A_AC3
Duration                                 : 22mn 58s
Bit rate mode                            : Constant
Bit rate                                 : 192 Kbps
Channel(s)                               : 2 channels
Channel positions                        : Front: L R
Sampling rate                            : 48.0 KHz
Bit depth                                : 16 bits
Compression mode                         : Lossy
Stream size                              : 31.5 MiB (2%)
Title                                    : HTB
Language                                 : Russian
Default                                  : No
Forced                                   : No
Audio #5
ID                                       : 6
Format                                   : AC-3
Format/Info                              : Audio Coding 3
Mode extension                           : CM (complete main)
Format settings, Endianness              : Big
Codec ID                                 : A_AC3
Duration                                 : 22mn 58s
Bit rate mode                            : Constant
Bit rate                                 : 640 Kbps
Channel(s)                               : 6 channels
Channel positions                        : Front: L C R, Side: L R, LFE
Sampling rate                            : 48.0 KHz
Bit depth                                : 16 bits
Compression mode                         : Lossy
Stream size                              : 105 MiB (6%)
Title                                    : Original
Language                                 : English
Default                                  : No
Forced                                   : No
Text #1
ID                                       : 7
Format                                   : UTF-8
Codec ID                                 : S_TEXT/UTF8
Codec ID/Info                            : UTF-8 Plain Text
Language                                 : Russian
Default                                  : No
Forced                                   : No
Text #2
ID                                       : 8
Format                                   : UTF-8
Codec ID                                 : S_TEXT/UTF8
Codec ID/Info                            : UTF-8 Plain Text
Language                                 : English
Default                                  : Yes
Forced                                   : No
Menu
00:00:00.000                             : en:00:00:00.000
00:06:24.426                             : en:00:06:24.426
00:15:49.115                             : en:00:15:49.115
00:21:37.671                             : en:00:21:37.671
00:22:29.557                             : en:00:22:29.557

Внимание! Раздача ведётся путём добавления новых серий; при каждом добавлении создаётся новый торрент. Чтобы начать докачку новой серии, пользователям необходимо сделать следующее:
(1) остановить скачивание,
(2) удалить старый торрент у себя из клиента (старые серии удалять не надо),
(3) скачать новый торрент и запустить его у себя в клиенте вместо старого, при этом указать клиенту путь в старую папку куда и должно происходить скачивание новых серий.
Ваш клиент при этом должен произвести хеширование (проверку) старой папки (если не производит сам - помогите ему сделать это), и будет докачивать только те серии которых у вас ещё нет. Старые серии при этом не удаляются, а продолжают раздаваться!
Eсли вы уже удалили старые серии, то предотвратить повторную закачку старых серий можно, отжав галочку в соответствующих местах при запуске нового торрента. По возможности, желательно не удалять старые серии как можно дольше чтобы релизёр не столько продолжал раздавать старые серии, а смог сконцентрироваться на новых.

все раздачи сериала
Не забывайте говорить Спасибо. Не уходите с раздачи!   
Торрент: Зарегистрирован [15 июл 2012, 14:05]
Статус:
Проверен
 
.torrent скачан: 0 раз
Хэш: c00da3ddfbaa27a4cb66df82b4a7d5ee84d81fcf
Размер: 21.22 ГБ (22 781 176 437 байт)
   Стать Автором раздачи
   
Цитата
  • Похожие торренты
    Ответы
    Просмотры
    Последнее сообщение

Вернуться в Теория большого взрыва / The Big Bang Theory

Кто сейчас на конференции

Сейчас эту тему просматривают: нет зарегистрированных пользователей и гости: 1