Теория Большого Взрыва / The Big Bang Theory / Сезон: 4 / Серии: 1-24 (24) (Марк Сендроуски) [2010-2011, США, Ситком, HDTVRip 720p] VO (Кураж-Бамбей) + Sub (Rus, Eng)

 Статистика раздачи 
Размер: 13.78 ГБ   |  Зарегистрирован: 26 сен 2010, 07:01   |   .torrent скачан: 0 раз
Сидеров: 0  [ 0 байт/сек ]     Личеров: 0  [ 0 байт/сек ]  
  
Аватара пользователя
Главный редактор
Главный редактор
 
Раздал: 83.18 ТБ
Скачал: 3.76 ТБ
Ратио: 22.548
Сообщения: 213311
Стаж: 8 лет 8 месяцев 21 день
Откуда: Санкт-Петербург

Теория Большого Взрыва / The Big Bang Theory [Season 4]
«Smart Is The New Sexy.»

Год выпуска: 2010-2011
Страна: США | Warner Bros. Television
Жанр: Ситком
Продолжительность: ~00:23 x24 | 24 x700 МБ
Перевод: Профессиональный (одноголосый) - Кураж-Бамбей
Оригинальная дорожка: Английская
Субтитры: русские, английские
Автор идеи: Чак Лорри
В ролях: Джонни Галаки, Джим Парсонс, Кейли Куоко, Саймон Хелберг, Кунал Найар, Сара Гилберт
Описание: Два блестящих физика, Леонард и Шелдон, «великие умы», которые понимают как «работает вселенная». Но их гениальность ничуть не помогает им общаться с людьми, особенно с женщинами. Всё начинает меняться, когда напротив них поселяется красавица Пенни.
Когда Леонард и Шелдон встречают Пенни, Леонард сразу же начинает интересоваться ею. Он видит в общении с Пенни огромную перспективу… вплоть до любви, однако Шелдон понимает, что мечтам его друга не суждено сбыться.
Стоит также отметить пару странных друзей этих физиков: Воловиц, который любит употреблять фразы на разных языках, включая русский, и Раджеш Кутраппали, теряющий дар речи при виде женщин.
Релиз подготовил: uxTuaHgp
Все раздачи сериала |
Качество: HDTV [720p]
Формат: MKV
Видео кодек: H.264
Аудио кодек: AC3
Видео: 1280x720, 23.976 fps, ~3Mbps, 0.151 bit/pixel
Аудио #1: AC3 2.0, 48 KHz, 192 kbps |Кураж-Бамбей|
Аудио #2: AC3 5.1, 48 KHz, 384 kbps |Оригинальная дорожка|
The Robotic Manipulation
The Cruciferous Vegetable Amplification
The Zazzy Substitution
The Hot Troll Deviation
The Desperation Emanation
The Irish Pub Formulation
The Apology Insufficiency
The 21-second Excitation
The Boyfriend Complexity
The Alien Parasite Hypothesis
The Justice League Recombination
The Bus Pants Utilization
The Love Car Displacement
The Thespian Catalyst
The Benefactor Factor
The Cohabitation Formulation
The Toast Derivation
The Prestidigitation Approximation
The Zarnecki Incursion
The Herb Garden Germination
The Agreement Dissection
The Wildebeest Implementation
The Engagement Reaction
[*]The Roomate Transmogrfication
Код:
Код: Выделить всё
Format                           : Matroska
File size                        : 588 MiB
Duration                         : 21mn 5s
Overall bit rate                 : 3 900 Kbps
Encoded date                     : UTC 2010-09-26 07:50:38
Writing application              : mkvmerge v2.5.3 ('Boogie') built on Mar  7 2009 15:00:41
Writing library                  : libebml v0.7.7 + libmatroska v0.8.1
Video
ID                               : 1
Format                           : AVC
Format/Info                      : Advanced Video Codec
Format profile                   : High@L3.1
Format settings, CABAC           : Yes
Format settings, ReFrames        : 3 frames
Muxing mode                      : Container profile=Unknown@3.1
Codec ID                         : V_MPEG4/ISO/AVC
Duration                         : 21mn 5s
Bit rate                         : 3 326 Kbps
Width                            : 1 280 pixels
Height                           : 720 pixels
Display aspect ratio             : 16:9
Frame rate                       : 23.976 fps
Color space                      : YUV
Chroma subsampling               : 4:2:0
Bit depth                        : 8 bits
Scan type                        : Progressive
Bits/(Pixel*Frame)               : 0.151
Stream size                      : 490 MiB (83%)
Title                            : The Big Bang Theory S04 E01 The Robotic Manipulation
Writing library                  : x264 core 85 r1442tw
Encoding settings                : cabac=1 / ref=3 / deblock=1:0:0 / analyse=0x3:0x113 / me=hex / subme=6 / psy=1 / psy_rd=1.00:0.00 / mixed_ref=1 / me_range=16 / chroma_me=1 / trellis=1 / 8x8dct=1 / cqm=0 / deadzone=21,11 / fast_pskip=1 / chroma_qp_offset=-2 / threads=25 / sliced_threads=0 / nr=0 / decimate=1 / mbaff=0 / constrained_intra=0 / bframes=3 / b_pyramid=1 / b_adapt=1 / b_bias=0 / direct=1 / wpredb=1 / wpredp=0 / keyint=240 / keyint_min=24 / scenecut=40 / intra_refresh=0 / rc_lookahead=40 / rc=2pass / mbtree=1 / bitrate=3326 / ratetol=1.0 / qcomp=0.60 / qpmin=10 / qpmax=51 / qpstep=4 / cplxblur=20.0 / qblur=0.5 / ip_ratio=1.40 / aq=1:1.00
Language                         : English
Audio #1
ID                               : 2
Format                           : AC-3
Format/Info                      : Audio Coding 3
Mode extension                   : CM (complete main)
Codec ID                         : A_AC3
Duration                         : 21mn 5s
Bit rate mode                    : Constant
Bit rate                         : 192 Kbps
Channel(s)                       : 2 channels
Channel positions                : Front: L R
Sampling rate                    : 48.0 KHz
Bit depth                        : 16 bits
Stream size                      : 29.0 MiB (5%)
Title                            : AC3 2.0 @ 192 kbps [Кураж-Бамбей]
Language                         : Russian
Audio #2
ID                               : 3
Format                           : AC-3
Format/Info                      : Audio Coding 3
Mode extension                   : CM (complete main)
Codec ID                         : A_AC3
Duration                         : 21mn 5s
Bit rate mode                    : Constant
Bit rate                         : 384 Kbps
Channel(s)                       : 6 channels
Channel positions                : Front: L C R, Side: L R, LFE
Sampling rate                    : 48.0 KHz
Bit depth                        : 16 bits
Stream size                      : 57.9 MiB (10%)
Title                            : AC3 5.1 @ 384 kbps
Language                         : English
Text #1
ID                               : 4
Format                           : UTF-8
Codec ID                         : S_TEXT/UTF8
Codec ID/Info                    : UTF-8 Plain Text
Language                         : English
Text #2
ID                               : 5
Format                           : UTF-8
Codec ID                         : S_TEXT/UTF8
Codec ID/Info                    : UTF-8 Plain Text
Language                         : Russian



Перезалил дорогу к 24 эпизоду!
Не забывайте говорить Спасибо. Не уходите с раздачи!   
Торрент: Зарегистрирован [26 сен 2010, 07:01]
Статус:
Проверен
 
.torrent скачан: 0 раз
Хэш: 561c298c9e762994d78a2f657c33d83f348d9af0
Размер: 13.78 ГБ (14 796 722 987 байт)
   Стать Автором раздачи
   
Цитата
  • Похожие торренты
    Ответы
    Просмотры
    Последнее сообщение

Вернуться в Теория большого взрыва / The Big Bang Theory

Кто сейчас на конференции

Сейчас эту тему просматривают: нет зарегистрированных пользователей и гости: 1