Теория Большого Взрыва / The Big Bang Theory / Сезон: 5 / Серии: 1-24 из 24 (Чак Лорри) [2011, США, Ситком, BDRemux 1080p] VO (Кураж-Бамбей) + MVO (BBC Saint-Petersburg) + Original + Rus Sub

 Статистика раздачи 
Размер: 64.78 ГБ   |  Зарегистрирован: 22 сен 2014, 12:32   |   .torrent скачан: 0 раз
Сидеров: 0  [ 0 байт/сек ]     Личеров: 0  [ 0 байт/сек ]  
  
Аватара пользователя
Главный редактор
Главный редактор
 
Раздал: 83.18 ТБ
Скачал: 3.76 ТБ
Ратио: 22.548
Сообщения: 213311
Стаж: 8 лет 8 месяцев 21 день
Откуда: Санкт-Петербург

Теория Большого Взрыва / The Big Bang Theory
Год выпуска: 2011
Страна: США
Жанр: Ситком
Продолжительность: ~00:22:00
Перевод: Профессиональный (одноголосый закадровый) Кураж-Бамбей
Перевод 2: Профессиональный (многоголосый закадровый) BBC Saint-Petersburg
Режиссёр: Чак Лорри
В ролях: Джонни Галаки, Джим Парсонс, Кейли Куоко, Саймон Хелберг, Кунал Найар, Сара Гилберт
Описание:
Два блестящих физика, Леонард и Шелдон, «великие умы», которые понимают как «работает вселенная». Но их гениальность ничуть не помогает им общаться с людьми, особенно с женщинами. Всё начинает меняться, когда напротив них поселяется красавица Пенни. Когда Леонард и Шелдон встречают Пенни, Леонард сразу же начинает интересоваться ею. Он видит в общении с Пенни огромную перспективу… вплоть до любви, однако Шелдон понимает, что мечтам его друга не суждено сбыться. Стоит также отметить пару странных друзей этих физиков: Воловиц, который любит употреблять фразы на разных языках, включая русский, и Раджеш Кутраппали, теряющий дар речи при виде женщин.
Доп. информация:
Мои релизы других сезонов
1 сезон BDRemux 1080p
2 сезон BDRemux 1080p
3 сезон BDRemux 1080p
4 сезон BDRemux 1080p
5 сезон BDRemux 1080p
6 сезон BDRemux 1080p
7 сезон BDRemux 1080p
8 сезон BDRemux 1080p
1 сезон BDRip 1080p 10bit
2 сезон BDRip 1080p 10bit
3 сезон BDRip 1080p 10bit
4 сезон BDRip 1080p 10bit
5 сезон BDRip 1080p 10bit
6 сезон BDRip 1080p 10bit
7 сезон BDRip 1080p 10bit
8 сезон BDRip 1080p 10bit
Ссылка на предыдущие и альтернативные раздачи: https://rutracker.org/forum/tracker.php?f=2396,189,2366,842&nm=the+Big+Bang+Theory+5
Сэмпл: https://sendfile.su/1025738
Качество: BDRemux 1080p
Контейнер: MKV
Видео: MPEG4 Video (H264) 1920x1080 23.976fps ~20000Kbps (Variable)
Аудио: Dolby AC3 48000Hz 6ch 384Kbps, Kuraj-Bambey
Аудио 2: Dolby AC3 48000Hz 6ch 384Kbps, BBC Saint-Petersburg
Аудио 3: DTS-HD 48000Hz 6 ch 1509 Kbps | English
Субтитры: softsub (SRT) Rus (лепрозорий), Eng
0501 - The Skank Reflex Analysis
0502 - The Infestation Hypothesis
0503 - The Pulled Groin Extrapolation
0504 - The Wiggly Finger Catalyst
0505 - The Russian Rocket Reaction
0506 - The Rhinitis Revelation
0507 - The Good Guy Fluctuation
0508 - The Isolation Permutation
0509 - The Ornithophobia Diffusion
0510 - The Flaming Spittoon Acquisition
0511 - The Speckerman Recurrence
0512 - The Shiny Trinket Maneuver
0513 - The Recombination Hypothesis
0514 - The Beta Test Initiation
0515 - The Friendship Contraction
0516 - The Vacation Solution
0517 - The Rothman Disintegration
0518 - The Werewolf Transformation
0519 - The Weekend Vortex
0520 - The Transporter Malfunction
0521 - The Hawking Excitation
0522 - The Stag Convergence
0523 - The Launch Acceleration
0524 - The Countdown Reflection
General
Unique ID : 197267948600966861222301810701655179585 (0x94686CC8123AF26E873E5B251C698141)
Complete name : G:\reliz\out\The.Big.Bang.Theory.Season.5\S05E01.The.Skank.Reflex.Analysis.mkv
Format : Matroska
Format version : Version 4 / Version 2
File size : 2.78 GiB
Duration : 21mn 30s
Overall bit rate mode : Variable
Overall bit rate : 18.5 Mbps
Movie name : The Skank Reflex Analysis / Анализ рефлекса распущенности
Encoded date : UTC 2014-09-20 09:47:59
Writing application : mkvmerge v7.1.0 ('Good Love') 64bit built on Jul 27 2014 13:06:55
Writing library : libebml v1.3.0 + libmatroska v1.4.1
Cover : Yes / Yes
_STATISTICS_WRITING_APP : mkvmerge v7.1.0 ('Good Love') 64bit built on Jul 27 2014 13:06:55
_STATISTICS_WRITING_DATE_UTC : 2014-09-20 09:47:59
_STATISTICS_TAGS : BPS DURATION NUMBER_OF_FRAMES NUMBER_OF_BYTES
DURATION : 00:20:58.767000000
NUMBER_OF_FRAMES : 464
NUMBER_OF_BYTES : 13558
Video
ID : 1
Format : AVC
Format/Info : Advanced Video Codec
Format profile : High@L4.0
Format settings, CABAC : Yes
Format settings, ReFrames : 2 frames
Codec ID : V_MPEG4/ISO/AVC
Duration : 21mn 30s
Bit rate mode : Variable
Width : 1 920 pixels
Height : 1 080 pixels
Display aspect ratio : 16:9
Frame rate mode : Constant
Frame rate : 23.976 fps
Color space : YUV
Chroma subsampling : 4:2:0
Bit depth : 8 bits
Scan type : Progressive
Title : Анализ рефлекса распущенности
Language : English
Default : Yes
Forced : No
Audio #1
ID : 2
Format : AC-3
Format/Info : Audio Coding 3
Mode extension : CM (complete main)
Format settings, Endianness : Big
Codec ID : A_AC3
Duration : 21mn 30s
Bit rate mode : Constant
Bit rate : 384 Kbps
Channel(s) : 6 channels
Channel positions : Front: L C R, Side: L R, LFE
Sampling rate : 48.0 KHz
Bit depth : 16 bits
Compression mode : Lossy
Stream size : 59.1 MiB (2%)
Title : Кураж-Бамбей
Language : Russian
Default : Yes
Forced : No
Audio #2
ID : 3
Format : AC-3
Format/Info : Audio Coding 3
Mode extension : CM (complete main)
Format settings, Endianness : Big
Codec ID : A_AC3
Duration : 21mn 30s
Bit rate mode : Constant
Bit rate : 384 Kbps
Channel(s) : 6 channels
Channel positions : Front: L C R, Side: L R, LFE
Sampling rate : 48.0 KHz
Bit depth : 16 bits
Compression mode : Lossy
Stream size : 59.1 MiB (2%)
Title : BBC Saint-Petersburg
Language : Russian
Default : No
Forced : No
Audio #3
ID : 4
Format : DTS
Format/Info : Digital Theater Systems
Format profile : MA / Core
Mode : 16
Format settings, Endianness : Big
Codec ID : A_DTS
Duration : 21mn 30s
Bit rate mode : Variable
Bit rate : Unknown / 1 509 Kbps
Channel(s) : 6 channels
Channel positions : Front: L C R, Side: L R, LFE
Sampling rate : 48.0 KHz
Bit depth : 16 bits
Compression mode : Lossless / Lossy
Title : English DTS-HD MA 5.1
Language : English
Default : No
Forced : No
Text #1
ID : 5
Format : UTF-8
Codec ID : S_TEXT/UTF8
Codec ID/Info : UTF-8 Plain Text
Title : Суверенный Лепрозорий
Language : Russian
Default : Yes
Forced : No
Text #2
ID : 6
Format : UTF-8
Codec ID : S_TEXT/UTF8
Codec ID/Info : UTF-8 Plain Text
Title : Original
Language : English
Default : No
Forced : No
Menu
00:00:00.000 : en:00:00:00.000
00:02:41.244 : en:00:02:41.244
00:13:04.617 : en:00:13:04.617
00:20:26.225 : en:00:20:26.225
00:21:08.601 : en:00:21:08.601



Постер
Не забывайте говорить Спасибо. Не уходите с раздачи!   
Торрент: Зарегистрирован [22 сен 2014, 12:32]
Статус:
Проверен
 
.torrent скачан: 0 раз
Хэш: 9079b8083d79c9922f34dfce9426316f0f15e578
Размер: 64.78 ГБ (69 557 112 216 байт)
   Стать Автором раздачи
   
Цитата
  • Похожие торренты
    Ответы
    Просмотры
    Последнее сообщение

Вернуться в Теория большого взрыва / The Big Bang Theory

Кто сейчас на конференции

Сейчас эту тему просматривают: нет зарегистрированных пользователей и гости: 1