Теория Большого Взрыва / The Big Bang Theory / Сезон: 3 / Серии: 1-23 из 23 (Джеймс Берроуз, Марк Сендровски) [2010, США, комедия, BDRemux 1080p] VO (Кураж-Бамбей) + MVO (СТС) + Original + Sub (Rus, Eng)

 Статистика раздачи 
Размер: 61.57 ГБ   |  Зарегистрирован: 02 авг 2014, 15:27   |   .torrent скачан: 0 раз
Сидеров: 0  [ 0 байт/сек ]     Личеров: 0  [ 0 байт/сек ]  
  
Аватара пользователя
Главный редактор
Главный редактор
 
Раздал: 83.18 ТБ
Скачал: 3.76 ТБ
Ратио: 22.548
Сообщения: 213311
Стаж: 8 лет 8 месяцев 21 день
Откуда: Санкт-Петербург

Теория Большого Взрыва / The Big Bang Theory
Год выпуска: 2010
Страна: США
Жанр: комедия
Продолжительность: ~ 00:22:00
Перевод: Профессиональный (одноголосый закадровый) Кураж-Бамбей
Перевод 2: Профессиональный (многоголосый закадровый) СТС
Режиссёр: Джеймс Берроуз, Марк Сендровски
В ролях: Джим Парсонс / Jim Parsons (Sheldon), Джонни Галекки / Johnny Galecki (Leonard), Кейли Куоко / Kaley Cuoco (Penny), Саймон Хельберг / Simon Helberg (Howard Wolowitz), Кунал Найяр / Kunal Nayyar (Rajesh Koothrappali) и др.
Описание:
Два блестящих физика, Леонард и Шелдон, «великие умы», которые понимают как «работает вселенная». Но их гениальность ничуть не помогает им общаться с людьми, особенно с женщинами. Всё начинает меняться, когда напротив них поселяется красавица Пенни.
Когда Леонард и Шелдон встречают Пенни, Леонард сразу же начинает интересоваться ею. Он видит в общении с Пенни огромную перспективу…, вплоть до любви, однако Шелдон понимает, что мечтам его друга не суждено сбыться.
Стоит также отметить пару странных друзей этих физиков: Говард Воловиц, который любит употреблять фразы на разных языках, включая русский и Раждеш Кутрапали, теряющий дар речи при виде женщин
Доп. информация:
Мои релизы других сезонов
1 сезон BDRemux 1080p
2 сезон BDRemux 1080p
3 сезон BDRemux 1080p
4 сезон BDRemux 1080p
5 сезон BDRemux 1080p
6 сезон BDRemux 1080p
7 сезон BDRemux 1080p
8 сезон BDRemux 1080p
1 сезон BDRip 1080p 10bit
2 сезон BDRip 1080p 10bit
3 сезон BDRip 1080p 10bit
4 сезон BDRip 1080p 10bit
5 сезон BDRip 1080p 10bit
6 сезон BDRip 1080p 10bit
7 сезон BDRip 1080p 10bit
8 сезон BDRip 1080p 10bit
Ссылка на предыдущие и альтернативные раздачи: https://rutracker.org/forum/tracker.php?f=2396&nm=The+Big+Bang+Theory
Сэмпл: http://multi-up.com/990136
Качество: BDRemux 1080p
Контейнер: MKV
Видео: VC-1, 1920x1080 (16:9), 23.976 fps, 13.6 Mbps
Аудио: Russian, 48 KHz, AC3, 2 ch, 192 Kbps | по версии "Кураж-Бамбей"
Аудио 2: Russian, 48 KHz, AC3, 2 ch, 192 Kbps | СТС (студия Новамедиа)
Аудио 3: English, 48 KHz, AC3, 6 ch, 640 Kbps | Оригинал
Субтитры: softsub (SRT) Русские, Английские
01. The Electric Can Opener Fluctuation
02. The Jiminy Conjecture
03. The Gothowitz Deviation
04. The Pirate Solution
05. The Creepy Candy Coating Corollary
06. The Cornhusker Vortex
07. The Guitarist Amplification
08. The Adhesive Duck Deficiency
09. The Vengeance Formulation
10. The Gorilla Experiment
11. The Maternal Congruence
12. The Psychic Vortex
13. The Bozeman Reaction
14. The Einstein Approximation
15. The Large Hadron Collision
16. The Excelsior Acquisition
17. The Precious Fragmentation
18. The Pants Alternative
19. The Wheaton Recurrence
20. The Spaghetti Catalyst
21. The Plimpton Stimulation
22. The Staircase Implementation
23. The Lunar Excitation
General
Unique ID : 213256728484918374017093858206060369914 (0xA06FC07E08897C70AB6DB847D8DFD7FA)
Complete name : G:\reliz\S03E01.The.Electric.Can.Opener.Fluctuation (1)-001.mkv
Format : Matroska
Format version : Version 4 / Version 2
File size : 99.2 MiB
Duration : 55s 790ms
Overall bit rate : 14.9 Mbps
Movie name : The Lunar Excitation
Encoded date : UTC 2014-08-02 15:29:15
Writing application : mkvmerge v7.0.0 ('Where We Going') 64bit built on Jun 9 2014 15:16:27
Writing library : libebml v1.3.0 + libmatroska v1.4.1
Cover : Yes / Yes
_STATISTICS_WRITING_APP : mkvmerge v7.0.0 ('Where We Going') 64bit built on Jun 9 2014 15:16:27
_STATISTICS_WRITING_DATE_UTC : 2014-08-02 15:29:15
_STATISTICS_TAGS : BPS DURATION NUMBER_OF_FRAMES NUMBER_OF_BYTES
DURATION : 00:00:53.052000000
NUMBER_OF_FRAMES : 13
NUMBER_OF_BYTES : 555
Video
ID : 1
Format : VC-1
Format profile : Advanced@L3
Codec ID : V_MS/VFW/FOURCC / WVC1
Codec ID/Hint : Microsoft
Duration : 55s 806ms
Bit rate : 13.6 Mbps
Width : 1 920 pixels
Height : 1 080 pixels
Display aspect ratio : 16:9
Frame rate mode : Constant
Frame rate : 23.976 fps
Color space : YUV
Chroma subsampling : 4:2:0
Bit depth : 8 bits
Scan type : Progressive
Compression mode : Lossy
Bits/(Pixel*Frame) : 0.273
Stream size : 90.5 MiB (91%)
Title : The Electric Can Opener Fluctuation
Language : English
Default : No
Forced : No
_STATISTICS_WRITING_APP : mkvmerge v7.0.0 ('Where We Going') 64bit built on Jun 9 2014 15:16:27
_STATISTICS_WRITING_DATE_UTC : 2014-08-02 15:29:15
_STATISTICS_TAGS : BPS DURATION NUMBER_OF_FRAMES NUMBER_OF_BYTES
DURATION : 00:00:53.095000000
NUMBER_OF_FRAMES : 1273
NUMBER_OF_BYTES : 97034635
Audio #1
ID : 2
Format : AC-3
Format/Info : Audio Coding 3
Mode extension : CM (complete main)
Format settings, Endianness : Big
Codec ID : A_AC3
Duration : 55s 790ms
Bit rate mode : Constant
Bit rate : 192 Kbps
Channel(s) : 2 channels
Channel positions : Front: L R
Sampling rate : 48.0 KHz
Bit depth : 16 bits
Compression mode : Lossy
Stream size : 1.28 MiB (1%)
Title : Кураж-Бамбей
Language : Russian
Default : Yes
Forced : No
Audio #2
ID : 3
Format : AC-3
Format/Info : Audio Coding 3
Mode extension : CM (complete main)
Format settings, Endianness : Big
Codec ID : A_AC3
Duration : 55s 790ms
Bit rate mode : Constant
Bit rate : 192 Kbps
Channel(s) : 2 channels
Channel positions : Front: L R
Sampling rate : 48.0 KHz
Bit depth : 16 bits
Compression mode : Lossy
Stream size : 1.28 MiB (1%)
Title : СТС
Language : Russian
Default : No
Forced : No
_STATISTICS_WRITING_APP : mkvmerge v7.0.0 ('Where We Going') 64bit built on Jun 9 2014 15:16:27
_STATISTICS_WRITING_DATE_UTC : 2014-08-02 15:29:15
_STATISTICS_TAGS : BPS DURATION NUMBER_OF_FRAMES NUMBER_OF_BYTES
DURATION : 00:00:53.120000000
NUMBER_OF_FRAMES : 1660
NUMBER_OF_BYTES : 4249600
Audio #3
ID : 4
Format : AC-3
Format/Info : Audio Coding 3
Mode extension : CM (complete main)
Format settings, Endianness : Big
Codec ID : A_AC3
Duration : 55s 790ms
Bit rate mode : Constant
Bit rate : 640 Kbps
Channel(s) : 6 channels
Channel positions : Front: L C R, Side: L R, LFE
Sampling rate : 48.0 KHz
Bit depth : 16 bits
Compression mode : Lossy
Stream size : 4.26 MiB (4%)
Title : English
Language : English
Default : No
Forced : No
Text #1
ID : 5
Format : UTF-8
Codec ID : S_TEXT/UTF8
Codec ID/Info : UTF-8 Plain Text
Title : Russian
Language : Russian
Default : No
Forced : No
Text #2
ID : 6
Format : UTF-8
Codec ID : S_TEXT/UTF8
Codec ID/Info : UTF-8 Plain Text
Title : English
Language : English
Default : No
Forced : No
Menu
00:00:00.000 : en:Chapter 01



Не забывайте говорить Спасибо. Не уходите с раздачи!   
Торрент: Зарегистрирован [02 авг 2014, 15:27]
Статус:
Проверен
 
.torrent скачан: 0 раз
Хэш: 0cca673a1676df7627ea66808bb3fc9556cb650b
Размер: 61.57 ГБ (66 110 633 217 байт)
   Стать Автором раздачи
   
Цитата
  • Похожие торренты
    Ответы
    Просмотры
    Последнее сообщение

Вернуться в Теория большого взрыва / The Big Bang Theory

Кто сейчас на конференции

Сейчас эту тему просматривают: нет зарегистрированных пользователей и гости: 1