Теория Большого Взрыва / The Big Bang Theory / Сезон: 4 / Серии: 1-24 из 24 (Марк Сендроуски, Питер Чакос) [2010, США, Ситком, BDRemux 1080p] VO (Кураж-Бамбей) + VO (Кураж-Бамбей) + MVO (2х2) + Original + Rus Sub

 Статистика раздачи 
Размер: 74.21 ГБ   |  Зарегистрирован: 30 авг 2014, 17:53   |   .torrent скачан: 0 раз
Сидеров: 0  [ 0 байт/сек ]     Личеров: 0  [ 0 байт/сек ]  
  
Аватара пользователя
Главный редактор
Главный редактор
 
Раздал: 83.18 ТБ
Скачал: 3.76 ТБ
Ратио: 22.548
Сообщения: 213311
Стаж: 8 лет 8 месяцев 21 день
Откуда: Санкт-Петербург

Теория Большого Взрыва / The Big Bang Theory
Год выпуска: 2010
Страна: США
Жанр: Ситком
Продолжительность: ~ 00:22:00
Перевод: Профессиональный (одноголосый закадровый) Кураж-Бамбей
Перевод 2: Профессиональный (одноголосый закадровый) Кураж-Бамбей
Перевод 3: Профессиональный (многоголосый закадровый) 2х2
Режиссёр: Марк Сендроуски, Питер Чакос
В ролях: Джим Парсонс / Jim Parsons (Sheldon), Джонни Галекки / Johnny Galecki (Leonard), Кейли Куоко / Kaley Cuoco (Penny), Саймон Хельберг / Simon Helberg (Howard Wolowitz), Кунал Найяр / Kunal Nayyar (Rajesh Koothrappali) и др.
Описание:
Два блестящих физика, Леонард и Шелдон, «великие умы», которые понимают как «работает вселенная». Но их гениальность ничуть не помогает им общаться с людьми, особенно с женщинами. Всё начинает меняться, когда напротив них поселяется красавица Пенни.
Когда Леонард и Шелдон встречают Пенни, Леонард сразу же начинает интересоваться ею. Он видит в общении с Пенни огромную перспективу… вплоть до любви, однако Шелдон понимает, что мечтам его друга не суждено сбыться.
Стоит также отметить пару странных друзей этих физиков: Воловиц, который любит употреблять фразы на разных языках, включая русский, и Раджеш Кутраппали, теряющий дар речи при виде женщин.
Доп. информация:
Мои релизы других сезонов
1 сезон BDRemux 1080p
2 сезон BDRemux 1080p
3 сезон BDRemux 1080p
4 сезон BDRemux 1080p
5 сезон BDRemux 1080p
6 сезон BDRemux 1080p
7 сезон BDRemux 1080p
8 сезон BDRemux 1080p
1 сезон BDRip 1080p 10bit
2 сезон BDRip 1080p 10bit
3 сезон BDRip 1080p 10bit
4 сезон BDRip 1080p 10bit
5 сезон BDRip 1080p 10bit
6 сезон BDRip 1080p 10bit
7 сезон BDRip 1080p 10bit
8 сезон BDRip 1080p 10bit
за озвучку 2х2 спасибо Tom Soyer
Ссылка на предыдущие и альтернативные раздачи: https://rutracker.org/forum/tracker.php?f=2396,189,2366,842&nm=%D0%A2%D0%B5%D...%2F+The+Big+Bang
Сэмпл: http://multi-up.com/989737 выложу когда доделаю
Качество: BDRemux 1080p
Контейнер: MKV
Видео: MPEG4 Video (H264) 1920x1080 23.976fps ~20000Kbps (Variable)
Аудио 1: Dolby AC3 48000Hz stereo 192kbps, Kuraj-Bambey
Аудио 2: Dolby AC3 48000Hz 6ch 448Kbps, Kuraj-Bambey
Аудио 3: Dolby AC3 48000Hz stereo 192kbps, 2х2
Аудио 4: Dolby AC3 48000Hz 6ch 384Kbps, Original
Аудио 5: DTS-HD 48000Hz 6 ch 1509 Kbps | English
Субтитры: softsub (SRT) Rus, Eng
01. The Robotic Manipulation
02. The Cruciferous Vegetable Amplification
03. The Zazzy Substitution
04. The Hot Troll Deviation
05. The Desperation Emanation
06. The Irish Pub Formulation
07. The Apology Insufficiency
08. The 21-second Excitation
09. The Boyfriend Complexity
10. The Alien Parasite Hypothesis
11. The Justice League Recombination
12. The Bus Pants Utilization
13. The Love Car Displacement
14. The Thespian Catalyst
15. The Benefactor Factor
16. The Cohabitation Formulation
17. The Toast Derivation
18. The Prestidigitation Approximation
19. The Zarnecki Incursion
20. The Herb Garden Germination
21. The Agreement Dissection
22. The Wildebeest Implementation
23. The Engagement Reaction
24. The Roommate Transmogrification
General
Unique ID : 194915076029387095883186911636913205624 (0x92A34735159061169FE197C660E53178)
Complete name : G:\reliz\The.Big.Bang.Theory.S04.2010.BluRay.1080p.Remux.AVC.DTS-HDMA.5.1-BluHD\S04E10.The.Alien.Parasite.Hypothesis.BluRay.1080p.Remux (1).mkv
Format : Matroska
Format version : Version 4 / Version 2
File size : 3.00 GiB
Duration : 20mn 11s
Overall bit rate mode : Variable
Overall bit rate : 21.2 Mbps
Movie name : The Alien Parasite Hypothesis
Encoded date : UTC 2014-08-30 16:52:36
Writing application : mkvmerge v7.1.0 ('Good Love') 64bit built on Jul 27 2014 13:06:55
Writing library : libebml v1.3.0 + libmatroska v1.4.1
Cover : Yes
DURATION : 00:20:11.968000000
NUMBER_OF_FRAMES : 37874
NUMBER_OF_BYTES : 29087232
_STATISTICS_WRITING_APP : mkvmerge v7.1.0 ('Good Love') 64bit built on Jul 27 2014 13:06:55
_STATISTICS_WRITING_DATE_UTC : 2014-08-30 16:52:36
_STATISTICS_TAGS : BPS DURATION NUMBER_OF_FRAMES NUMBER_OF_BYTES
Video
ID : 1
Format : AVC
Format/Info : Advanced Video Codec
Format profile : High@L4.1
Format settings, CABAC : Yes
Format settings, ReFrames : 4 frames
Codec ID : V_MPEG4/ISO/AVC
Duration : 20mn 11s
Bit rate mode : Variable
Maximum bit rate : 38.0 Mbps
Width : 1 920 pixels
Height : 1 080 pixels
Display aspect ratio : 16:9
Frame rate mode : Constant
Frame rate : 23.976 fps
Color space : YUV
Chroma subsampling : 4:2:0
Bit depth : 8 bits
Scan type : Progressive
Title : The Alien Parasite Hypothesis
Language : English
Default : Yes
Forced : No
DURATION : 00:20:11.961000000
NUMBER_OF_FRAMES : 29058
NUMBER_OF_BYTES : 2704479827
_STATISTICS_WRITING_APP : mkvmerge v7.1.0 ('Good Love') 64bit built on Jul 27 2014 13:06:55
_STATISTICS_WRITING_DATE_UTC : 2014-08-30 16:52:36
_STATISTICS_TAGS : BPS DURATION NUMBER_OF_FRAMES NUMBER_OF_BYTES
Audio #1
ID : 2
Format : AC-3
Format/Info : Audio Coding 3
Mode extension : CM (complete main)
Format settings, Endianness : Big
Codec ID : A_AC3
Duration : 20mn 11s
Bit rate mode : Constant
Bit rate : 192 Kbps
Channel(s) : 2 channels
Channel positions : Front: L R
Sampling rate : 48.0 KHz
Bit depth : 16 bits
Compression mode : Lossy
Stream size : 27.7 MiB (1%)
Title : Кураж-Бамбей
Language : Russian
Default : Yes
Forced : No
DURATION : 00:20:11.958000000
NUMBER_OF_FRAMES : 113621
NUMBER_OF_BYTES : 327902176
_STATISTICS_WRITING_APP : mkvmerge v7.1.0 ('Good Love') 64bit built on Jul 27 2014 13:06:55
_STATISTICS_WRITING_DATE_UTC : 2014-08-30 16:52:36
_STATISTICS_TAGS : BPS DURATION NUMBER_OF_FRAMES NUMBER_OF_BYTES
Audio #2
ID : 3
Format : AC-3
Format/Info : Audio Coding 3
Mode extension : CM (complete main)
Format settings, Endianness : Big
Codec ID : A_AC3
Duration : 20mn 11s
Bit rate mode : Constant
Bit rate : 448 Kbps
Channel(s) : 6 channels
Channel positions : Front: L C R, Side: L R, LFE
Sampling rate : 48.0 KHz
Bit depth : 16 bits
Compression mode : Lossy
Stream size : 64.7 MiB (2%)
Title : Кураж-Бамбей
Language : Russian
Default : No
Forced : No
Audio #3
ID : 4
Format : AC-3
Format/Info : Audio Coding 3
Mode extension : CM (complete main)
Format settings, Endianness : Big
Codec ID : A_AC3
Duration : 20mn 11s
Bit rate mode : Constant
Bit rate : 192 Kbps
Channel(s) : 2 channels
Channel positions : Front: L R
Sampling rate : 48.0 KHz
Bit depth : 16 bits
Compression mode : Lossy
Stream size : 27.7 MiB (1%)
Title : 2x2
Language : Russian
Default : No
Forced : No
Audio #4
ID : 5
Format : AC-3
Format/Info : Audio Coding 3
Mode extension : CM (complete main)
Format settings, Endianness : Big
Codec ID : A_AC3
Duration : 20mn 11s
Bit rate mode : Constant
Bit rate : 384 Kbps
Channel(s) : 6 channels
Channel positions : Front: L C R, Side: L R, LFE
Sampling rate : 48.0 KHz
Bit depth : 16 bits
Compression mode : Lossy
Stream size : 55.5 MiB (2%)
Title : English
Language : English
Default : No
Forced : No
Audio #5
ID : 6
Format : DTS
Format/Info : Digital Theater Systems
Format profile : MA / Core
Mode : 16
Format settings, Endianness : Big
Codec ID : A_DTS
Duration : 20mn 11s
Bit rate mode : Variable
Bit rate : Unknown / 1 509 Kbps
Channel(s) : 6 channels
Channel positions : Front: L C R, Side: L R, LFE
Sampling rate : 48.0 KHz
Bit depth : 16 bits
Compression mode : Lossless / Lossy
Title : English DTS-HD MA 5.1
Language : English
Default : No
Forced : No
Text #1
ID : 7
Format : UTF-8
Codec ID : S_TEXT/UTF8
Codec ID/Info : UTF-8 Plain Text
Title : Суверенный Лепрозорий
Language : Russian
Default : Yes
Forced : No
Text #2
ID : 8
Format : UTF-8
Codec ID : S_TEXT/UTF8
Codec ID/Info : UTF-8 Plain Text
Title : English
Language : English
Default : No
Forced : No
Menu
00:00:00.000 : en:Chapter 01
00:03:54.609 : en:Chapter 02
00:04:17.173 : en:Chapter 03
00:12:11.063 : en:Chapter 04
00:19:45.767 : en:Chapter 05



Так как Звук Kuraj-Bambey 5,1 имеет жуткий срез на 14000Hz
Сделал эту дорожку дополнительной

Постер
Не забывайте говорить Спасибо. Не уходите с раздачи!   
Торрент: Зарегистрирован [30 авг 2014, 17:53]
Статус:
Проверен
 
.torrent скачан: 0 раз
Хэш: 16b9cac68ebcb98bac5e0eda8dd9ddd44422555d
Размер: 74.21 ГБ (79 681 395 381 байт)
   Стать Автором раздачи
   
Цитата
  • Похожие торренты
    Ответы
    Просмотры
    Последнее сообщение

Вернуться в Теория большого взрыва / The Big Bang Theory

Кто сейчас на конференции

Сейчас эту тему просматривают: нет зарегистрированных пользователей и гости: 1