Теория Большого Взрыва / The Big Bang Theory / Сезон: 3 / Серии: 1-23 (23) (Марк Сендроуски) [2009-2010, США, Ситком, Blu-Ray 1080p (custom)] VO (Кураж-Бамбей) + rus sub

 Статистика раздачи 
Размер: 68.19 ГБ   |  Зарегистрирован: 31 янв 2011, 17:42   |   .torrent скачан: 0 раз
Сидеров: 0  [ 0 байт/сек ]     Личеров: 0  [ 0 байт/сек ]  
  
Аватара пользователя
Главный редактор
Главный редактор
 
Раздал: 83.18 ТБ
Скачал: 3.76 ТБ
Ратио: 22.541
Сообщения: 214001
Стаж: 8 лет 8 месяцев 26 дней
Откуда: Санкт-Петербург

Теория Большого Взрыва / The Big Bang Theory
Год выпуска: 2009
Страна: США
Жанр: Ситком
Продолжительность: 529 минут
Перевод: авторский одноголосый закадровый (Кураж-Бамбей) оригинал (бонусы только с субтитрами)
Русские субтитры: есть
Субтитры: Английские, Французские, Испанские, Русские
Режиссёр: Марк Сендовски
В ролях: Джонни Галекки, Джим Парсонс, Кейли Куоко, Саймон Хельберг, Кунал Найяр
Описание: Два блестящих физика, Леонард и Шелдон, «великие умы», которые понимают как «работает вселенная». Но их гениальность ничуть не помогает им общаться с людьми, особенно с женщинами. Всё начинает меняться, когда напротив них поселяется красавица Пенни.
Когда Леонард и Шелдон встречают Пенни, Леонард сразу же начинает интересоваться ею. Он видит в общении с Пенни огромную перспективу… вплоть до любви, однако Шелдон понимает, что мечтам его друга не суждено сбыться.
Стоит также отметить пару странных друзей этих физиков: Воловиц, который любит употреблять фразы на разных языках, включая русский, и Раджеш Кутраппали, теряющий дар речи при виде женщин.
Список серий:
01. The Electric Can Opener Fluctuation
02. The Jiminy Conjecture
03. The Gothowitz Deviation
04. The Pirate Solution
05. The Creepy Candy Coating Corollary
06. The Cornhusker Vortex
07. The Guitarist Amplification
08. The Adhesive Duck Deficiency
09. The Vengeance Formulation
10. The Gorilla Experiment
11. The Maternal Congruence
12. The Psychic Vortex
13. The Bozeman Reaction
14. The Einstein Approximation
15. The Large Hadron Collision
16. The Excelsior Acquisition
17. The Precious Fragmentation
18. The Pants Alternative
19. The Wheaton Recurrence
20. The Spaghetti Catalyst
21. The Plimpton Stimulation
22. The Staircase Implementation
23. The Lunar Excitation
Бонусы:
Gag Reel (Неудачные дубли)
Set Tour With Simon And Kunal (Экскурсия с Саймоном и Куналом по съёмочной площадке)
Takeout With The Cast Of The Big Bang Theory (Обед на вынос с актерами Теории Большого Взрыва)
Доп. информация: Реавторинг дисков и подготовку сабов/звука делал сам. Диски сохранили полнофункциональное Java-меню. За исходные блю-рэи благодарю 629629
Предыдущие и альтернативные раздачи
Качество: Blu-Ray [url=http:// СПАМ
Формат
: BDAV
Видео кодек: VC-1
Аудио кодек: AC3
Видео: VC-1, 1920x1080, 23.976 fps, 18 Mbps, 0.364 bits/(pixel*frame)
Аудио 1: Dolby AC3 48000Hz 6ch 640kbps [английский]
Аудио 2: Dolby AC3 48000Hz 6ch 384kbps [русский]
Код: Выделить всё
General
ID                               : 0 (0x0)
Complete name                    : X:\@downloads\The.Big.Bang.Theory.S03.rus.eng.1080p.Blu-ray.[Kuraj-Bambey]\BD1\BDMV\STREAM\00000.m2ts
Format                           : BDAV
Format/Info                      : Blu-ray Video
File size                        : 3.01 GiB
Duration                         : 21mn 35s
Overall bit rate                 : 20.0 Mbps
Maximum Overall bit rate         : 48.0 Mbps
Video
ID                               : 4113 (0x1011)
Menu ID                          : 1 (0x1)
Format                           : VC-1
Format profile                   : AP@L3
Codec ID                         : 234
Duration                         : 21mn 34s
Bit rate                         : 18.1 Mbps
Width                            : 1 920 pixels
Height                           : 1 080 pixels
Display aspect ratio             : 16:9
Frame rate                       : 23.976 fps
Chroma subsampling               : 4:2:0
Bit depth                        : 8 bits
Scan type                        : Progressive
Compression mode                 : Lossy
Bits/(Pixel*Frame)               : 0.364
Stream size                      : 2.73 GiB (91%)
Audio #1
ID                               : 4352 (0x1100)
Menu ID                          : 1 (0x1)
Format                           : AC-3
Format/Info                      : Audio Coding 3
Mode extension                   : CM (complete main)
Codec ID                         : 129
Duration                         : 21mn 35s
Bit rate mode                    : Constant
Bit rate                         : 640 Kbps
Channel(s)                       : 6 channels
Channel positions                : Front: L C R, Side: L R, LFE
Sampling rate                    : 48.0 KHz
Bit depth                        : 16 bits
Compression mode                 : Lossy
Stream size                      : 98.8 MiB (3%)
Audio #2
ID                               : 4353 (0x1101)
Menu ID                          : 1 (0x1)
Format                           : AC-3
Format/Info                      : Audio Coding 3
Mode extension                   : CM (complete main)
Codec ID                         : 129
Duration                         : 21mn 35s
Bit rate mode                    : Constant
Bit rate                         : 384 Kbps
Channel(s)                       : 6 channels
Channel positions                : Front: L C R, Side: L R, LFE
Sampling rate                    : 48.0 KHz
Bit depth                        : 16 bits
Compression mode                 : Lossy
Stream size                      : 59.3 MiB (2%)
Text #1
ID                               : 4608 (0x1200)
Menu ID                          : 1 (0x1)
Format                           : PGS
Codec ID                         : 144
Duration                         : 21mn 31s
Delay relative to video          : 2s 169ms
Text #2
ID                               : 4609 (0x1201)
Menu ID                          : 1 (0x1)
Format                           : PGS
Codec ID                         : 144
Duration                         : 21mn 31s
Delay relative to video          : 2s 169ms
Text #3
ID                               : 4610 (0x1202)
Menu ID                          : 1 (0x1)
Format                           : PGS
Codec ID                         : 144
Duration                         : 21mn 31s
Delay relative to video          : 2s 169ms
Text #4
ID                               : 4611 (0x1203)
Menu ID                          : 1 (0x1)
Format                           : PGS
Codec ID                         : 144
Duration                         : 21mn 1s
Delay relative to video          : 2s 711ms

Не забывайте говорить Спасибо. Не уходите с раздачи!   
Торрент: Зарегистрирован [31 янв 2011, 17:42]
Статус:
Проверен
 
.torrent скачан: 0 раз
Хэш: 36f9c54c7102b7058d3093c0a44019852ee7fb3e
Размер: 68.19 ГБ (73 215 599 044 байт)
   Стать Автором раздачи
   
Цитата
  • Похожие торренты
    Ответы
    Просмотры
    Последнее сообщение

Вернуться в Теория большого взрыва / The Big Bang Theory

Кто сейчас на конференции

Сейчас эту тему просматривают: нет зарегистрированных пользователей и гости: 1