Теория Большого Взрыва / The Big Bang Theory / Сезон: 4 / Серии: 1-24 из 24 (Марк Сендроуски) [2010-2011, США, Комедия, BDRip 1080p] VO (Кураж-Бамбей) + Original + Sub (Rus, Eng)

 Статистика раздачи 
Размер: 50.99 ГБ   |  Зарегистрирован: 23 окт 2013, 16:20   |   .torrent скачан: 0 раз
Сидеров: 0  [ 0 байт/сек ]     Личеров: 0  [ 0 байт/сек ]  
  
Аватара пользователя
Главный редактор
Главный редактор
 
Раздал: 83.18 ТБ
Скачал: 3.76 ТБ
Ратио: 22.541
Сообщения: 214001
Стаж: 8 лет 8 месяцев 26 дней
Откуда: Санкт-Петербург


Теория Большого Взрыва / The Big Bang Theory

Год выпуска: 2010-2011
Страна: США
Жанр: Комедия
Продолжительность: ~ 00:22:00
Перевод: Профессиональный (одноголосый закадровый) - Кураж-Бамбей
Режиссёр: Марк Сендроуски, Питер Чакос
В ролях: Джим Парсонс / Jim Parsons (Sheldon), Джонни Галекки / Johnny Galecki (Leonard), Кейли Куоко / Kaley Cuoco (Penny), Саймон Хельберг / Simon Helberg (Howard Wolowitz), Кунал Найяр / Kunal Nayyar (Rajesh Koothrappali) и др.
Описание: Два блестящих физика, Леонард и Шелдон, «великие умы», которые понимают как «работает вселенная». Но их гениальность ничуть не помогает им общаться с людьми, особенно с женщинами. Всё начинает меняться, когда напротив них поселяется красавица Пенни.
Когда Леонард и Шелдон встречают Пенни, Леонард сразу же начинает интересоваться ею. Он видит в общении с Пенни огромную перспективу… вплоть до любви, однако Шелдон понимает, что мечтам его друга не суждено сбыться.
Стоит также отметить пару странных друзей этих физиков: Воловиц, который любит употреблять фразы на разных языках, включая русский, и Раджеш Кутраппали, теряющий дар речи при виде женщин.
Релизер : Автор Раздачи - АКТЕР aka CEBEPu2D
Видео ряд от NTb
Озвучка: Кураж-Бамбей
Текст читали: Денис Колесников
Все раздачи сериала

Качество: BDRip 1080p
Формат: MKV
Видео кодек: H.264
Аудио кодек: AC3, DTS
Видео: 1916x1080, 23.976 fps, ~11,4 Mbps, ~0.229 bit/pixel
Аудио Rus: AC3, 48 kHz, 6 ch, 448 kbps |Кураж-Бамбей|
Аудио Eng: DTS, 48 kHz, 6 ch, 1509 kbps |Original|
Субтитры: Русские (Суверенный Лепрозорий), английские
|Сохранены оригинальные чаптеры как на Blu-ray.l
01. The Robotic Manipulation
02. The Cruciferous Vegetable Amplification
03. The Zazzy Substitution
04. The Hot Troll Deviation
05. The Desperation Emanation
06. The Irish Pub Formulation
07. The Apology Insufficiency
08. The 21-second Excitation
09. The Boyfriend Complexity
10. The Alien Parasite Hypothesis
11. The Justice League Recombination
12. The Bus Pants Utilization
13. The Love Car Displacement
14. The Thespian Catalyst
15. The Benefactor Factor
16. The Cohabitation Formulation
17. The Toast Derivation
18. The Prestidigitation Approximation
19. The Zarnecki Incursion
20. The Herb Garden Germination
21. The Agreement Dissection
22. The Wildebeest Implementation
23. The Engagement Reaction
24. The Roommate Transmogrification
Полное имя : E:\The.Big.Bang.Theory.S04.Bdrip.1080p.by.AKTEP\The.Big.Bang.Theory.S04E01.Bdrip.1080p.by.AKTEP.mkv
Формат : Matroska
Версия формата : Version 4 / Version 2
Размер файла : 2,04 Гбайт
Продолжительность : 21 м.
Общий поток : 13,6 Мбит/сек
Дата кодирования : UTC 2013-10-24 22:17:03
Программа кодирования : mkvmerge v6.2.0 ('Promised Land') built on Apr 28 2013 12:22:01
Библиотека кодирования : libebml v1.3.0 + libmatroska v1.4.0
Видео
Идентификатор : 1
Формат : AVC
Формат/Информация : Advanced Video Codec
Профиль формата : High@L4.1
Параметр CABAC формата : Да
Параметр ReFrames формата : 4 кадра
Идентификатор кодека : V_MPEG4/ISO/AVC
Продолжительность : 21 м.
Битрейт : 11,3 Мбит/сек
Ширина : 1916 пикселей
Высота : 1080 пикселей
Соотношение сторон : 16:9
Режим частоты кадров : Постоянный
Частота кадров : 23,976 кадра/сек
Цветовое пространство : YUV
Субдискретизация насыщенности : 4:2:0
Битовая глубина : 8 бит
Тип развёртки : Прогрессивная
Бит/(Пиксели*Кадры) : 0.228
Размер потока : 1,70 Гбайт (84%)
Заголовок : by AKTEP
Библиотека кодирования : x264 core 125 r2200 999b753
Настройки программы : cabac=1 / ref=4 / deblock=1:-3:-3 / analyse=0x3:0x113 / me=umh / subme=10 / psy=1 / psy_rd=1.04:0.04 / mixed_ref=1 / me_range=48 / chroma_me=1 / trellis=2 / 8x8dct=1 / cqm=0 / deadzone=21,11 / fast_pskip=0 / chroma_qp_offset=-3 / threads=12 / lookahead_threads=2 / sliced_threads=0 / nr=0 / decimate=1 / interlaced=0 / bluray_compat=0 / constrained_intra=0 / bframes=6 / b_pyramid=2 / b_adapt=2 / b_bias=0 / direct=3 / weightb=1 / open_gop=0 / weightp=2 / keyint=240 / keyint_min=23 / scenecut=40 / intra_refresh=0 / rc_lookahead=192 / rc=crf / mbtree=1 / crf=18.0 / qcomp=0.70 / qpmin=0 / qpmax=69 / qpstep=4 / ip_ratio=1.40 / aq=1:0.75
Язык : English
Default : Да
Forced : Нет
Аудио #1
Идентификатор : 2
Формат : AC-3
Формат/Информация : Audio Coding 3
Расширение режима : CM (complete main)
Параметр Endianness формата : Big
Идентификатор кодека : A_AC3
Продолжительность : 21 м.
Вид битрейта : Постоянный
Битрейт : 448 Кбит/сек
Каналы : 6 каналов
Расположение каналов : Front: L C R, Side: L R, LFE
Частота : 48,0 КГц
Битовая глубина : 16 бит
Метод сжатия : С потерями
Размер потока : 68,9 Мбайт (3%)
Язык : Russian
Default : Да
Forced : Нет
Аудио #2
Идентификатор : 3
Формат : DTS
Формат/Информация : Digital Theater Systems
Режим : 16
Параметр Endianness формата : Big
Идентификатор кодека : A_DTS
Продолжительность : 21 м.
Вид битрейта : Постоянный
Битрейт : 1509 Кбит/сек
Каналы : 6 каналов
Расположение каналов : Front: L C R, Side: L R, LFE
Частота : 48,0 КГц
Битовая глубина : 24 бит
Метод сжатия : С потерями
Размер потока : 232 Мбайт (11%)
Язык : English
Default : Нет
Forced : Нет
Текст #1
Идентификатор : 4
Формат : UTF-8
Идентификатор кодека : S_TEXT/UTF8
Идентификатор кодека/Информация : UTF-8 Plain Text
Язык : Russian
Default : Нет
Forced : Нет
Текст #2
Идентификатор : 5
Формат : UTF-8
Идентификатор кодека : S_TEXT/UTF8
Идентификатор кодека/Информация : UTF-8 Plain Text
Язык : English
Default : Нет
Forced : Нет
Меню
00:00:00.000 : en:00:00:00.000
00:02:22.642 : en:00:02:22.642
00:02:45.207 : en:00:02:45.207
00:10:45.353 : en:00:10:45.353
00:21:03.220 : en:00:21:03.220



Не забывайте говорить Спасибо. Не уходите с раздачи!   
Торрент: Зарегистрирован [23 окт 2013, 16:20]
Статус:
Проверен
 
.torrent скачан: 0 раз
Хэш: 0f6738e4ef8895be2f2e8865e76b47f10150180a
Размер: 50.99 ГБ (54 746 725 921 байт)
   Стать Автором раздачи
   
Цитата
  • Похожие торренты
    Ответы
    Просмотры
    Последнее сообщение

Вернуться в Теория большого взрыва / The Big Bang Theory

Кто сейчас на конференции

Сейчас эту тему просматривают: нет зарегистрированных пользователей и гости: 1