Теория Большого Взрыва / The Big Bang Theory / Сезон: 3 - доп. материалы (Чак Лорри / Chaсk Lorre) [2009, США, комедия, BDRip 720p] rus sub

 Статистика раздачи 
Размер: 895.86 МБ   |  Зарегистрирован: 15 дек 2010, 07:37   |   .torrent скачан: 0 раз
Сидеров: 0  [ 0 байт/сек ]     Личеров: 0  [ 0 байт/сек ]  
  
Аватара пользователя
Главный редактор
Главный редактор
 
Раздал: 83.18 ТБ
Скачал: 3.76 ТБ
Ратио: 22.543
Сообщения: 213816
Стаж: 8 лет 8 месяцев 24 дня
Откуда: Санкт-Петербург

Теория Большого Взрыва / The Big Bang Theory
Год выпуска: 2009
Страна: США | Warner Bros. Television
Жанр: комедия
Продолжительность: 00:07:51, 00:07:40, 00:10:25
Перевод: оригинал
Русские субтитры: есть
Субтитры: Notabenoid, редактированные мной
Режиссёр: Чак Лорри/Chaсk Lorre
В ролях: Джонни Галаки, Джим Парсонс, Кейли Куоко, Саймон Хелберг, Кунал Найар, Сара Гилберт
Описание: В состав входят испорченные, но смешные, реплики, экскурсия Саймона и Кунала по студии съёмок сериала и откровения актёрской комманды Теории Большого Взрыва.
Релиз:
  • При размещении на других ресурсах обязательно указывайте авторство
Доп. информация: Сабы отредактировал под публику, посмотревшую 3 сезон с озвучкой Кураж-Бамбей
3 сезон BDRip 720p
Качество: BDRip 720pSiNNERS(лучшего рипа нет)
Формат: MKV
Видео кодек: H.264
Аудио кодек: AC3
Видео: 1280x702(Gag Reel)&1280x720(Остальные), ~ 4 500 kbps, 205-210 bit/pixel
Аудио: 2hc., 48 KHz, 192 kbps
General
Complete name : The.Big.Bang.Theory.S03.EXTRAS.Gag.Reel.720p.BluRay.x264.mkv
Format : Matroska
File size : 271 MiB
Duration : 7mn 51s
Overall bit rate : 4 827 Kbps
Encoded date : UTC 2010-12-15 04:23:40
Writing application : mkvmerge v2.9.7 ('Tenderness') built on Jul 1 2009 18:43:35
Writing library : libebml v0.7.7 + libmatroska v0.8.1
Video #1
ID : 1
Format : AVC
Format/Info : Advanced Video Codec
Format profile : High@L3.1
Format settings, CABAC : Yes
Format settings, ReFrames : 5 frames
Muxing mode : Container profile=Unknown@3.1
Codec ID : V_MPEG4/ISO/AVC
Duration : 7mn 51s
Bit rate : 4 539 Kbps
Nominal bit rate : 4 632 Kbps
Width : 1 280 pixels
Height : 704 pixels
Display aspect ratio : 16:9
Frame rate : 23.976 fps
Resolution : 24 bits
Colorimetry : 4:2:0
Scan type : Progressive
Bits/(Pixel*Frame) : 0.210
Stream size : 255 MiB (94%)
Writing library : x264 core 104 r1713 c276662
Encoding settings : cabac=1 / ref=5 / deblock=1:0:0 / analyse=0x3:0x113 / me=umh / subme=7 / psy=1 / psy_rd=1.00:0.00 / mixed_ref=1 / me_range=16 / chroma_me=1 / trellis=1 / 8x8dct=1 / cqm=0 / deadzone=21,11 / fast_pskip=0 / chroma_qp_offset=-2 / threads=12 / sliced_threads=0 / nr=0 / decimate=1 / interlaced=0 / constrained_intra=0 / bframes=3 / b_pyramid=2 / b_adapt=1 / b_bias=0 / direct=1 / weightb=1 / open_gop=0 / weightp=2 / keyint=250 / keyint_min=23 / scenecut=40 / intra_refresh=0 / rc_lookahead=40 / rc=2pass / mbtree=1 / bitrate=4632 / ratetol=1.0 / qcomp=0.60 / qpmin=10 / qpmax=51 / qpstep=4 / cplxblur=20.0 / qblur=0.5 / ip_ratio=1.40 / aq=1:1.00
Audio #2
ID : 2
Format : AC-3
Format/Info : Audio Coding 3
Codec ID : A_AC3
Duration : 7mn 51s
Bit rate mode : Constant
Bit rate : 192 Kbps
Channel(s) : 2 channels
Channel positions : L R
Sampling rate : 48.0 KHz
Stream size : 10.8 MiB (4%)
Language : English
Text #3
ID : 3
Format : UTF-8
Codec ID : S_TEXT/UTF8
Codec ID/Info : UTF-8 Plain Text
Language : Russian
General
Complete name : The.Big.Bang.Theory.S03.EXTRAS.Set.Tour.With.Simon.And.Kunal.720p.BluRay.x264.mkv
Format : Matroska
File size : 265 MiB
Duration : 7mn 40s
Overall bit rate : 4 826 Kbps
Encoded date : UTC 2010-12-15 04:44:24
Writing application : mkvmerge v2.9.7 ('Tenderness') built on Jul 1 2009 18:43:35
Writing library : libebml v0.7.7 + libmatroska v0.8.1
Video #1
ID : 1
Format : AVC
Format/Info : Advanced Video Codec
Format profile : High@L3.1
Format settings, CABAC : Yes
Format settings, ReFrames : 5 frames
Muxing mode : Container profile=Unknown@3.1
Codec ID : V_MPEG4/ISO/AVC
Duration : 7mn 39s
Bit rate : 4 538 Kbps
Nominal bit rate : 4 632 Kbps
Width : 1 280 pixels
Height : 720 pixels
Display aspect ratio : 16:9
Frame rate : 23.976 fps
Resolution : 24 bits
Colorimetry : 4:2:0
Scan type : Progressive
Bits/(Pixel*Frame) : 0.205
Stream size : 249 MiB (94%)
Writing library : x264 core 104 r1713 c276662
Encoding settings : cabac=1 / ref=5 / deblock=1:0:0 / analyse=0x3:0x113 / me=umh / subme=7 / psy=1 / psy_rd=1.00:0.00 / mixed_ref=1 / me_range=16 / chroma_me=1 / trellis=1 / 8x8dct=1 / cqm=0 / deadzone=21,11 / fast_pskip=0 / chroma_qp_offset=-2 / threads=12 / sliced_threads=0 / nr=0 / decimate=1 / interlaced=0 / constrained_intra=0 / bframes=3 / b_pyramid=2 / b_adapt=1 / b_bias=0 / direct=1 / weightb=1 / open_gop=0 / weightp=2 / keyint=250 / keyint_min=23 / scenecut=40 / intra_refresh=0 / rc_lookahead=40 / rc=2pass / mbtree=1 / bitrate=4632 / ratetol=1.0 / qcomp=0.60 / qpmin=10 / qpmax=51 / qpstep=4 / cplxblur=20.0 / qblur=0.5 / ip_ratio=1.40 / aq=1:1.00
Audio #2
ID : 2
Format : AC-3
Format/Info : Audio Coding 3
Codec ID : A_AC3
Duration : 7mn 40s
Bit rate mode : Constant
Bit rate : 192 Kbps
Channel(s) : 2 channels
Channel positions : L R
Sampling rate : 48.0 KHz
Stream size : 10.5 MiB (4%)
Language : English
Text #3
ID : 3
Format : UTF-8
Codec ID : S_TEXT/UTF8
Codec ID/Info : UTF-8 Plain Text
Language : Russian
General
Complete name : The.Big.Bang.Theory.S03.EXTRAS.Takeout.With.The.Cast.Of.The.Big.Bang.Theory.720p.BluRay.x264.mkv
Format : Matroska
File size : 360 MiB
Duration : 10mn 25s
Overall bit rate : 4 825 Kbps
Encoded date : UTC 2010-12-15 06:00:15
Writing application : mkvmerge v2.9.7 ('Tenderness') built on Jul 1 2009 18:43:35
Writing library : libebml v0.7.7 + libmatroska v0.8.1
Video #1
ID : 1
Format : AVC
Format/Info : Advanced Video Codec
Format profile : High@L3.1
Format settings, CABAC : Yes
Format settings, ReFrames : 5 frames
Muxing mode : Container profile=Unknown@3.1
Codec ID : V_MPEG4/ISO/AVC
Duration : 10mn 24s
Bit rate : 4 537 Kbps
Nominal bit rate : 4 633 Kbps
Width : 1 280 pixels
Height : 720 pixels
Display aspect ratio : 16:9
Frame rate : 23.976 fps
Resolution : 24 bits
Colorimetry : 4:2:0
Scan type : Progressive
Bits/(Pixel*Frame) : 0.205
Stream size : 338 MiB (94%)
Writing library : x264 core 104 r1713 c276662
Encoding settings : cabac=1 / ref=5 / deblock=1:0:0 / analyse=0x3:0x113 / me=umh / subme=7 / psy=1 / psy_rd=1.00:0.00 / mixed_ref=1 / me_range=16 / chroma_me=1 / trellis=1 / 8x8dct=1 / cqm=0 / deadzone=21,11 / fast_pskip=0 / chroma_qp_offset=-2 / threads=12 / sliced_threads=0 / nr=0 / decimate=1 / interlaced=0 / constrained_intra=0 / bframes=3 / b_pyramid=2 / b_adapt=1 / b_bias=0 / direct=1 / weightb=1 / open_gop=0 / weightp=2 / keyint=250 / keyint_min=23 / scenecut=40 / intra_refresh=0 / rc_lookahead=40 / rc=2pass / mbtree=1 / bitrate=4633 / ratetol=1.0 / qcomp=0.60 / qpmin=10 / qpmax=51 / qpstep=4 / cplxblur=20.0 / qblur=0.5 / ip_ratio=1.40 / aq=1:1.00
Audio #2
ID : 2
Format : AC-3
Format/Info : Audio Coding 3
Codec ID : A_AC3
Duration : 10mn 25s
Bit rate mode : Constant
Bit rate : 192 Kbps
Channel(s) : 2 channels
Channel positions : L R
Sampling rate : 48.0 KHz
Stream size : 14.3 MiB (4%)
Language : English
Text #3
ID : 3
Format : UTF-8
Codec ID : S_TEXT/UTF8
Codec ID/Info : UTF-8 Plain Text
Language : Russian
Не забывайте говорить Спасибо. Не уходите с раздачи!   
Торрент: Зарегистрирован [15 дек 2010, 07:37]
Статус:
Проверен
 
.torrent скачан: 0 раз
Хэш: eb6c70debd611086bf019ab095a46aa14bfaae6d
Размер: 895.86 МБ (939 378 433 байт)
   Стать Автором раздачи
   
Цитата
  • Похожие торренты
    Ответы
    Просмотры
    Последнее сообщение

Вернуться в Теория большого взрыва / The Big Bang Theory

Кто сейчас на конференции

Сейчас эту тему просматривают: нет зарегистрированных пользователей и гости: 1