Дангал / Dangal [Драма, биография, спорт, 2016] BDRip 1080p, Mvo

 Статистика раздачи 
Размер: 10.08 ГБ   |  Зарегистрирован: 02 сен 2017, 15:38   |   .torrent скачан: 0 раз
Сидеров: 0  [ 0 байт/сек ]     Личеров: 0  [ 0 байт/сек ]  
  
Аватара пользователя
 
Раздал: 3.16 ТБ
Скачал: 38.27 ГБ
Ратио: 84.430
Сообщения: 191010
Стаж: 1 год 6 месяцев 30 дней

Русское название: Дангал
Оригинальное название: Dangal
Год выхода: 2016
Режиссер: Нитеш Тивари
В ролях: Аамир Кхан, Сакши Танвар, Фатима Сана Шаикх, Санья Малхотра, Апаршакти Хурана, Заира Васим, Сухани Бхатнагар, Ритвик Сахоре, Гириш Кулкарни, Анураг Арор
Страна производства: Индия
Продолжительность: 161 мин. / 02:41
Композитор: Притам Чакраборти
Монтаж: Баллу Салуджа
Художник: Лаксми Келускар, Сандип Мехер, Максима Басу
Оператор: Сатьяджит Панде
Продюсер: Аамир Кхан, Киран Рао, Вишеш Агравал
Слоган: -
Сценарий: Пиюш Гупта, Шрейаз Джайн, Никхил Мехротра
Жанр: драма, биография, спорт
Описание: История реально существующего спортсмена Махавира Сингха Пхогата, который по причине бедности был вынужден бросить спортивную борьбу, но поклялся воспитать сына, который станет в будущем олимпийским чемпионом. Но вот досада у них с женой родились четыре дочки. Отец сначала отчаялся, но потом, увидев, что подросшие девчонки поколачивают одноклассников, решил всё же сделать из них спортсменок. Тренер из отца получился отменный.
Рейтинг IMDB: 8.80 (50 178)
Рейтинг Kinopoisk:
Продолжительность: 02:41:01
Перевод: Профессиональный [многоголосый]

Файл
Формат: MKV
Качество: BDRip 1080p
Видео: MPEG-4 AVC, 7375 Кбит/с, 1920х800
Аудио 1: Русский (AC3, 6 ch, 640 Кбит/с) MVO (FocusStudio)
Аудио 2: Русский (AC3, 2 ch, 224 Кбит/с) MVO (Honey&Haseena)
Аудио 3: Хинди (AC3, 6 ch, 640 Кбит/с) Original
Субтитры: Русские, английские

Код: Выделить всё
Общее
Уникальный идентификатор : 246554681160381378193430509313443490115 (0xB97CB44F776CB35BB76BB26E53EFE943)
Полное имя : E:Раздача-BDRipDangal .2017. BDRip 1080p_FreeRutor.mkv
Формат : Matroska
Версия формата : Version 2
Размер файла : 10,1 Гбайт
Продолжительность : 2 ч. 41 м.
Общий поток : 8961 Кбит/сек
Название фильма : Dangal (2016) BDRip 1080p_FreeRutor_grab777
Дата кодирования : UTC 2017-09-02 02:02:48
Программа кодирования : mkvmerge v5.8.0 ('No Sleep / Pillow') built on Sep 2 2012 15:37:04
Библиотека кодирования : libebml v1.2.3 + libmatroska v1.3.0

Видео
Идентификатор : 1
Формат : AVC
Формат/Информация : Advanced Video Codec
Профиль формата : High@L4.1
Параметр CABAC формата : Да
Параметр ReFrames формата : 5 кадров
Идентификатор кодека : V_MPEG4/ISO/AVC
Продолжительность : 2 ч. 41 м.
Битрейт : 7375 Кбит/сек
Ширина : 1920 пикселей
Высота : 800 пикселей
Соотношение сторон : 2,40:1
Режим частоты кадров : Постоянный
Частота кадров : 24,000 кадра/сек
Цветовое пространство : YUV
Субдискретизация насыщенности : 4:2:0
Битовая глубина : 8 бит
Тип развёртки : Прогрессивная
Бит/(Пиксели*Кадры) : 0.200
Размер потока : 8,19 Гбайт (81%)
Заголовок : by_grab777
Библиотека кодирования : x264 core 148 r2744 b97ae06
Настройки программы : cabac=1 / ref=5 / deblock=1:-1:-1 / analyse=0x3:0x133 / me=umh / subme=9 / psy=1 / psy_rd=1.05:0.15 / mixed_ref=1 / me_range=32 / chroma_me=1 / trellis=2 / 8x8dct=1 / cqm=0 / deadzone=21,11 / fast_pskip=0 / chroma_qp_offset=-3 / threads=25 / lookahead_threads=2 / sliced_threads=0 / nr=0 / decimate=0 / interlaced=0 / bluray_compat=0 / constrained_intra=0 / bframes=3 / b_pyramid=2 / b_adapt=2 / b_bias=0 / direct=3 / weightb=1 / open_gop=0 / weightp=2 / keyint=230 / keyint_min=23 / scenecut=40 / intra_refresh=0 / rc_lookahead=60 / rc=2pass / mbtree=1 / bitrate=7375 / ratetol=1.0 / qcomp=0.65 / qpmin=10 / qpmax=51 / qpstep=4 / cplxblur=20.0 / qblur=0.5 / vbv_maxrate=62500 / vbv_bufsize=78125 / nal_hrd=none / filler=0 / ip_ratio=1.30 / aq=1:0.85
Язык : English
Default : Да
Forced : Нет
Основные цвета : BT.709
Характеристики трансфера : BT.709
Коэффициенты матрицы : BT.709

Аудио #1
Идентификатор : 2
Формат : AC-3
Формат/Информация : Audio Coding 3
Расширение режима : CM (complete main)
Параметр Endianness формата : Big
Идентификатор кодека : A_AC3
Продолжительность : 2 ч. 41 м.
Вид битрейта : Постоянный
Битрейт : 640 Кбит/сек
Каналы : 6 каналов
Расположение каналов : Front: L C R, Side: L R, LFE
Частота : 48,0 КГц
Битовая глубина : 16 бит
Метод сжатия : С потерями
Размер потока : 737 Мбайт (7%)
Заголовок : MVO (FocusStudio)
Язык : Russian
Default : Да
Forced : Нет

Аудио #2
Идентификатор : 3
Формат : AC-3
Формат/Информация : Audio Coding 3
Расширение режима : CM (complete main)
Параметр Endianness формата : Big
Идентификатор кодека : A_AC3
Продолжительность : 2 ч. 41 м.
Вид битрейта : Постоянный
Битрейт : 224 Кбит/сек
Каналы : 2 канала
Расположение каналов : Front: L R
Частота : 48,0 КГц
Битовая глубина : 16 бит
Метод сжатия : С потерями
Размер потока : 258 Мбайт (2%)
Заголовок : MVO (Honey&Haseena)
Язык : Russian
Default : Нет
Forced : Нет

Аудио #3
Идентификатор : 4
Формат : AC-3
Формат/Информация : Audio Coding 3
Расширение режима : CM (complete main)
Параметр Endianness формата : Big
Идентификатор кодека : A_AC3
Продолжительность : 2 ч. 41 м.
Вид битрейта : Постоянный
Битрейт : 640 Кбит/сек
Каналы : 6 каналов
Расположение каналов : Front: L C R, Side: L R, LFE
Частота : 48,0 КГц
Битовая глубина : 16 бит
Метод сжатия : С потерями
Размер потока : 737 Мбайт (7%)
Заголовок : Original
Язык : Hindi
Default : Нет
Forced : Нет

Текст #1
Идентификатор : 5
Формат : ASS
Идентификатор кодека : S_TEXT/ASS
Идентификатор кодека/Информация : Advanced Sub Station Alpha
Метод сжатия : Без потерь
Заголовок : Forced (Songs)
Язык : Russian
Default : Нет
Forced : Да

Текст #2
Идентификатор : 6
Формат : UTF-8
Идентификатор кодека : S_TEXT/UTF8
Идентификатор кодека/Информация : UTF-8 Plain Text
Язык : Russian
Default : Нет
Forced : Нет

Текст #3
Идентификатор : 7
Формат : UTF-8
Идентификатор кодека : S_TEXT/UTF8
Идентификатор кодека/Информация : UTF-8 Plain Text
Язык : English
Default : Нет
Forced : Нет

Текст #4
Идентификатор : 8
Формат : PGS
Режим смешивания : zlib
Идентификатор кодека : S_HDMV/PGS
Идентификатор кодека/Информация : The same subtitle format used on BDs/HD-DVDs
Заголовок : PGS
Язык : English
Default : Нет
Forced : Нет

Меню
00:00:00.000 : en:00:00:00.000
00:10:33.833 : en:00:10:33.833
00:16:23.542 : en:00:16:23.542
00:20:57.833 : en:00:20:57.833
00:28:12.333 : en:00:28:12.333
00:32:35.500 : en:00:32:35.500
00:36:22.708 : en:00:36:22.708
00:43:44.708 : en:00:43:44.708
00:47:31.250 : en:00:47:31.250
00:56:42.833 : en:00:56:42.833
00:59:54.583 : en:00:59:54.583
01:02:47.625 : en:01:02:47.625
01:12:08.333 : en:01:12:08.333
01:15:28.000 : en:01:15:28.000
01:26:24.625 : en:01:26:24.625
01:34:05.250 : en:01:34:05.250
01:41:23.542 : en:01:41:23.542
01:45:18.833 : en:01:45:18.833
01:51:11.583 : en:01:51:11.583
01:56:49.458 : en:01:56:49.458
02:04:11.542 : en:02:04:11.542
02:13:32.417 : en:02:13:32.417
02:18:20.000 : en:02:18:20.000
02:31:53.667 : en:02:31:53.667


Не забывайте говорить Спасибо. Не уходите с раздачи!   
Торрент: Зарегистрирован [02 сен 2017, 15:38] Для скачивания .torrent
необходима регистрация
Или скачать с помощью
MediaGet
Статус:
Проверен
 
.torrent скачан: 0 раз
Размер: 10.08 ГБ (10 821 371 770 байт)
   Стать Автором раздачи
   
Цитата

Вернуться в Индийское кино

Кто сейчас на конференции

Сейчас эту тему просматривают: нет зарегистрированных пользователей и гости: 1