Мистер Мерседес / Mr. Mercedes [S02] (2018) WEBRip 1080p | TVShows

 Статистика раздачи 
Размер: 24.85 ГБ   |  Зарегистрирован: 15 май 2019, 10:18   |   .torrent скачан: 11 раз
Сидеров: 22  [ 0 байт/сек ]     Личеров: 2  [ 0 байт/сек ]  
  
Аватара пользователя
Главный редактор
Главный редактор
 
Раздал: 90.01 ТБ
Скачал: 3.78 ТБ
Ратио: 24.248
Сообщения: 288885
Стаж: 9 лет 5 месяцев 10 дней
Откуда: Санкт-Петербург

Мистер Мерседес / Mr. Mercedes

Страна: США
Производство: David E. Kelley Productions, Nomadicfilm, Sonar Entertainment, Temple Hill Entertainment
Год выпуска: 2018
Жанр: фантастика, триллер, детектив
Продолжительность: 10х ~00:59:00

Режиссеры: Джек Бендер, Питер Уэллер
В ролях: Брендан Глисон, Джаррель Джером, Гарри Тредэвэй, Холланд Тейлор, Брида Вул, Тесса Феррер, Максимилиано Эрнандес, Майк Старр

Описание: Отставной полицейский Билл Ходжес возвращается к работе, так как ему не даёт покоя нераскрытое дело — жестокое убийство шестнадцати человек. Брэди Хартфилд не может забыть пьянящее чувство, когда на угнанном «мерседесе» он врезался в группу ни в чём не повинных людей. Брэди не хочет останавливаться — он уже планирует новое преступление, на этот раз намного более масштабное. Биллу Ходжесу и его команде необходимо опередить его и спасти жизнь уже не десяткам, а сотням людей...



Перевод: Профессиональный (многоголосый, закадровый) | TVShows
Субтитры: английские


Качество: WEBRip 1080p
Формат: МКV
Видео кодек: AVC
Аудио кодек: АС3 | E-AC3
Видео: 1920x1080 (16:9), 23.976 fps, MPEG-4 AVC ~5 655 kbps avg
Аудио №1: 48.0 kHz, AC3 Dolby Digital, 3/2 (L,C,R,l,r) + LFE ch, ~384 kbps | RUS / MVO
Аудио №2: 48.0 kHz, Enhanced Audio Coding 3, 3/2 (L,C,R,l,r) + LFE ch, ~640 kbps | ENG
Формат субтитров: UTF-8 Plain Text

Дата премьеры (мир): 22 августа 2018



General
Уникальный идентификатор : 339060920530483854540621013398993881235 (0xFF14C20B1DAF126D00EB7A3C3B79C893)
Полное имя : Mr.Mercedes.S02E01.1080p.TVShows.mkv
Формат : Matroska
Версия формата : Version 4
Размер файла : 2,80 Гбайт
Продолжительность : 59 м. 58 с.
Общий поток : 6680 Кбит/сек
Дата кодирования : UTC 2018-10-25 17:22:18
Программа кодирования : mkvmerge v24.0.0 ('Beyond The Pale') 64-bit
Библиотека кодирования : libebml v1.3.6 + libmatroska v1.4.9

Видео
Идентификатор : 1
Формат : AVC
Формат/Информация : Advanced Video Codec
Профиль формата : High@L4
Настройки формата : CABAC / 4 Ref Frames
Параметр CABAC формата : Да
Параметр RefFrames формата : 4 кадра
Идентификатор кодека : V_MPEG4/ISO/AVC
Продолжительность : 59 м. 58 с.
Битрейт : 5654 Кбит/сек
Ширина : 1920 пикселей
Высота : 1080 пикселей
Соотношение сторон : 16:9
Режим частоты кадров : Постоянный
Частота кадров : 23,976 (24000/1001) кадра/сек
Цветовое пространство : YUV
Субдискретизация насыщенности : 4:2:0
Битовая глубина : 8 бит
Тип развёртки : Прогрессивная
Бит/(Пиксели*Кадры) : 0.114
Размер потока : 2,37 Гбайт (85%)
Default : Да
Forced : Нет
Цветовой диапазон : Limited
Основные цвета : BT.709
Характеристики трансфера : BT.709
Коэффициенты матрицы : BT.709

Аудио #1
Идентификатор : 2
Формат : AC-3
Формат/Информация : Audio Coding 3
Коммерческое название : Dolby Digital
Идентификатор кодека : A_AC3
Продолжительность : 59 м. 58 с.
Вид битрейта : Постоянный
Битрейт : 384 Кбит/сек
Каналы : 6 каналов
Channel layout : L R C LFE Ls Rs
Частота : 48,0 КГц
Частота кадров : 31,250 кадров/сек (1536 SPF)
Битовая глубина : 16 бит
Метод сжатия : С потерями
Размер потока : 165 Мбайт (6%)
Заголовок : TVShows
Язык : Russian
Default : Да
Forced : Нет

Аудио #2
Идентификатор : 3
Формат : E-AC-3
Формат/Информация : Enhanced AC-3
Коммерческое название : Dolby Digital Plus
Идентификатор кодека : A_EAC3
Продолжительность : 59 м. 58 с.
Вид битрейта : Постоянный
Битрейт : 640 Кбит/сек
Каналы : 6 каналов
Channel layout : L R C LFE Ls Rs
Частота : 48,0 КГц
Частота кадров : 31,250 кадров/сек (1536 SPF)
Метод сжатия : С потерями
Размер потока : 275 Мбайт (10%)
Заголовок : Original
Язык : English
Default : Нет
Forced : Нет

Текст
Идентификатор : 4
Формат : UTF-8
Идентификатор кодека : S_TEXT/UTF8
Идентификатор кодека/Информация : UTF-8 Plain Text
Продолжительность : 59 м. 46 с.
Битрейт : 64 бит/сек
ElementCount : 1115
Размер потока : 28,3 Кбайт (0%)
Заголовок : English
Язык : English
Default : Нет
Forced : Нет
Не забывайте говорить Спасибо. Не уходите с раздачи!   
Торрент: Зарегистрирован [15 май 2019, 10:18]
Статус:
Проверен
 
.torrent скачан: 11 раз
Хэш: 5c0fb8ddd8e5df2e7114d093a2d06c013277216a
Размер: 24.85 ГБ (26 686 010 260 байт)
   Стать Автором раздачи
   
Цитата
  • Похожие торренты
    Ответы
    Просмотры
    Последнее сообщение

Вернуться в Мистер Мерседес / Mr. Mercedes

Кто сейчас на конференции

Сейчас эту тему просматривают: нет зарегистрированных пользователей и гости: 1