Мистер Мерседес / Mr. Mercedes [S01] (2017) WEBRip 1080p | TVShows

 Статистика раздачи 
Размер: 34.42 ГБ   |  Зарегистрирован: 15 май 2019, 10:18   |   .torrent скачан: 9 раз
Сидеров: 25  [ 0 байт/сек ]     Личеров: 13  [ 0 байт/сек ]  
  
Аватара пользователя
Главный редактор
Главный редактор
 
Раздал: 90.01 ТБ
Скачал: 3.78 ТБ
Ратио: 24.248
Сообщения: 288173
Стаж: 9 лет 5 месяцев 4 дня
Откуда: Санкт-Петербург

Мистер Мерседес / Mr. Mercedes

Страна: США
Производство: David E. Kelley Productions, Nomadicfilm, Sonar Entertainment, Temple Hill Entertainment
Год выпуска: 2017
Жанр: фантастика, триллер, детектив
Продолжительность: 10х ~00:56:00

Режиссеры: Джек Бендер, Лора Иннес, Джон Дэвид Коулз
В ролях: Брендан Глисон, Джаррель Джером, Гарри Тредэвэй, Холланд Тейлор, Брида Вул, Джастин Люпе, Роберт Стэнтон, Джек Хьюстон

Описание: Отставной полицейский Билл Ходжес возвращается к работе, так как ему не даёт покоя нераскрытое дело — жестокое убийство шестнадцати человек. Брэди Хартфилд не может забыть пьянящее чувство, когда на угнанном «мерседесе» он врезался в группу ни в чём не повинных людей. Брэди не хочет останавливаться — он уже планирует новое преступление, на этот раз намного более масштабное. Биллу Ходжесу и его команде необходимо опередить его и спасти жизнь уже не десяткам, а сотням людей...



Перевод: Профессиональный (многоголосый, закадровый) | TVShows
Субтитры: нет


Качество: WEBRip 1080p
Формат: МКV
Видео кодек: AVC
Аудио кодек: АС3 | E-AC3
Видео: 1920x1080 (16:9), 23.976 fps, MPEG-4 AVC ~5 900 kbps avg
Аудио №1: 48.0 kHz, AC3 Dolby Digital, 3/2 (L,C,R,l,r) + LFE ch, ~448 kbps | RUS / MVO
Аудио №2: 48.0 kHz, Enhanced Audio Coding 3, 3/2 (L,C,R,l,r) + LFE ch, ~640 kbps | ENG

Дата премьеры (мир): 9 августа 2017



General
Unique ID : 101096274627035446737991339160272078028 (0x4C0E6F2B77D44A4F5E7B4F17409784CC)
Complete name : Mr.Mercedes.S01E01.1080p.TVShows.mkv
Format : Matroska
Format version : Version 4 / Version 2
File size : 2.78 GiB
Duration : 55mn 47s
Overall bit rate : 7 132 Kbps
Encoded date : UTC 2018-11-17 10:20:29
Writing application : mkvmerge v28.2.0 ('The Awakening') 64-bit
Writing library : libebml v1.3.6 + libmatroska v1.4.9
DURATION : 00:55:47.840000000
NUMBER_OF_FRAMES : 104620
NUMBER_OF_BYTES : 267827200
_STATISTICS_WRITING_APP : mkvmerge v28.2.0 ('The Awakening') 64-bit
_STATISTICS_WRITING_DATE_UTC : 2018-11-17 10:20:29
_STATISTICS_TAGS : BPS DURATION NUMBER_OF_FRAMES NUMBER_OF_BYTES

Video
ID : 1
Format : AVC
Format/Info : Advanced Video Codec
Format profile : High@L4.0
Format settings, CABAC : Yes
Format settings, ReFrames : 4 frames
Codec ID : V_MPEG4/ISO/AVC
Duration : 55mn 47s
Bit rate : 5 902 Kbps
Width : 1 920 pixels
Height : 1 080 pixels
Display aspect ratio : 16:9
Frame rate mode : Constant
Frame rate : 23.976 fps
Color space : YUV
Chroma subsampling : 4:2:0
Bit depth : 8 bits
Scan type : Progressive
Bits/(Pixel*Frame) : 0.119
Stream size : 2.30 GiB (83%)
Default : Yes
Forced : No
Color primaries : BT.709
Transfer characteristics : BT.709
Matrix coefficients : BT.709

Audio #1
ID : 2
Format : AC-3
Format/Info : Audio Coding 3
Mode extension : CM (complete main)
Format settings, Endianness : Big
Codec ID : A_AC3
Duration : 55mn 47s
Bit rate mode : Constant
Bit rate : 448 Kbps
Channel(s) : 6 channels
Channel positions : Front: L C R, Side: L R, LFE
Sampling rate : 48.0 KHz
Bit depth : 16 bits
Compression mode : Lossy
Stream size : 179 MiB (6%)
Title : TVShows
Language : Russian
Default : Yes
Forced : Yes

Audio #2
ID : 3
Format : E-AC-3
Format/Info : Audio Coding 3
Format settings, Endianness : Big
Codec ID : A_EAC3
Duration : 55mn 47s
Bit rate mode : Constant
Bit rate : 640 Kbps
Channel(s) : 6 channels
Channel positions : Front: L C R, Side: L R, LFE
Sampling rate : 48.0 KHz
Compression mode : Lossy
Stream size : 255 MiB (9%)
Title : Original
Language : English
Default : No
Forced : No
Не забывайте говорить Спасибо. Не уходите с раздачи!   
Торрент: Зарегистрирован [15 май 2019, 10:18]
Статус:
Проверен
 
.torrent скачан: 9 раз
Хэш: 23514dee3e3490e21e051f8299fd4fd589f43d0b
Размер: 34.42 ГБ (36 962 113 705 байт)
   Стать Автором раздачи
   
Цитата
  • Похожие торренты
    Ответы
    Просмотры
    Последнее сообщение

Вернуться в Мистер Мерседес / Mr. Mercedes

Кто сейчас на конференции

Сейчас эту тему просматривают: нет зарегистрированных пользователей и гости: 1