Мистер Мерседес / Mr. Mercedes [S02] (2018) WEBRip | OmskBird

 Статистика раздачи 
Размер: 7.54 ГБ   |  Зарегистрирован: 26 окт 2018, 16:56   |   .torrent скачан: 405 раз
Сидеров: 2  [ 0 байт/сек ]     Личеров: 0  [ 0 байт/сек ]  
  
Аватара пользователя
Главный редактор
Главный редактор
 
Раздал: 90.01 ТБ
Скачал: 3.78 ТБ
Ратио: 24.248
Сообщения: 291047
Стаж: 9 лет 9 месяцев 14 дней
Откуда: Санкт-Петербург

Информация о фильме
Название: Мистер Мерседес
Оригинальное название: Mr. Mercedes
Год выхода: 2018
Жанр: Детектив, триллер
Режиссер: Джек Бендер, Джон Дэвид Коулз, Кевин Хукс
В ролях: Брендан Глисон, Келли Линч, Гарри Тредэвэй, Мэри-Луиз Паркер, Джаррель Джером, Тьюзди Биби, Лаура Дулинг, Билл Келли, Дэйв МакДональд и др.

О фильме:
Отставной полицейский Билл Ходжес возвращается к работе, так как ему не дает покоя нераскрытое дело - жестокое убийство восьми человек… Брейди Хартфилд не может забыть пьянящее чувство, когда на угнанном "мерседесе" он врезался в группу ни в чем не повинных людей… Брейди не хочет останавливаться - он уже планирует новое преступление, на этот раз намного более масштабное. Биллу Ходжесу и его команде необходимо опередить его и спасти жизнь уже не десяткам, а сотням людей…
Сериал «Мистер Мерседес» является экранизацией романа Стивена Кинга.


Страна: США, David E. Kelley Productions,Nomadicfilm,Temple Hill Entertainment
Продолжительность: ~00:59:00 серия
Перевод: Любительский (многоголосый закадровый) OmskBird

Файл
Кодек: XviD
Качество: WEBRip
Релиз от: OmskBird
Видео: 720x400, 23.976 fps, ~1772 kbps, 0.26 bit/pixel
Звук:
Аудио rus: AC-3, 2 ch, 48,0 КГц, 192 Кбит/сек - OmskBird
Субтитры: отсутствуют
Реклама: присутствует
Семпл

General
Complete name : G:Mr.Mercedes.S02.400p.WEBRip.OmskBirdMr.Mercedes.S02E01.WEBRip.OmskBird.avi
Format : AVI
Format/Info : Audio Video Interleave
File size : 856 MiB
Duration : 1 h 0 min
Overall bit rate : 1 974 kb/s
Writing application : VirtualDubMod 1.5.10.3 | www.virtualdub-fr.org || (build 2550/release)
Writing library : VirtualDubMod build 2550/release

Video
ID : 0
Format : MPEG-4 Visual
Format profile : Advanced Simple@L5
Format settings : BVOP1
Format settings, BVOP : 1
Format settings, QPel : No
Format settings, GMC : No warppoints
Format settings, Matrix : Default (MPEG)
Codec ID : XVID
Codec ID/Hint : XviD
Duration : 1 h 0 min
Bit rate : 1 773 kb/s
Width : 720 pixels
Height : 400 pixels
Display aspect ratio : 16:9
Frame rate : 23.976 (24000/1001) FPS
Original frame rate : 23.976 (23976/1000) FPS
Color space : YUV
Chroma subsampling : 4:2:0
Bit depth : 8 bits
Scan type : Progressive
Compression mode : Lossy
Bits/(Pixel*Frame) : 0.257
Stream size : 768 MiB (90%)
Writing library : XviD 1.2.1 (UTC 2008-12-04)

Audio
ID : 1
Format : AC-3
Format/Info : Audio Coding 3
Codec ID : 2000
Duration : 1 h 0 min
Bit rate mode : Constant
Bit rate : 192 kb/s
Channel(s) : 2 channels
Channel positions : Front: L R
Sampling rate : 48.0 kHz
Frame rate : 31.250 FPS (1536 SPF)
Bit depth : 16 bits
Compression mode : Lossy
Stream size : 83.2 MiB (10%)
Alignment : Split accross interleaves
Interleave, duration : 42 ms (1.00 video frame)
Interleave, preload duration : 500 ms
Service kind : Complete Main


Внимание! Раздача ведётся путём добавления новых серий; при каждом добавлении создётся новый торрент. Чтобы начать докачку новой серии, пользователям необходимо сделать следующее:
Остановить скачивание.
Удалить старый торрент у себя из клиента (старые серии удалять не надо).
Скачать новый торрент и запустить его у себя в клиенте вместо старого, при этом указать клиенту путь в старую папку куда и должно происходить скачивание новых серий.
Ваш клиент при этом должен произвести хеширование (проверку) старой папки (если не производит сам - помогите ему сделать это), и будет докачивать только те серии которых у вас ещё нет. Старые серии при этом не удаляются, а продолжают раздаваться!
Eсли вы уже удалили старые серии, то предотвратить повторную закачку старых серий можно, отжав галочку в соответсвующих местах при запуске нового торрента. По возможности, желательно не удалять старые серии как можно дольше чтобы релизёр не столько продолжал раздавать старые серии, а смог сконцентрироваться на новых.

Релиз от: OmskBird
Не забывайте говорить Спасибо. Не уходите с раздачи!   
Торрент: Зарегистрирован [26 окт 2018, 16:56]
Статус:
Проверен
 
.torrent скачан: 405 раз
Хэш: 6804df9a1de4164b5b5b11ad5e8d7ddcfb9b9ad8
Размер: 7.54 ГБ (8 100 708 352 байт)
   Стать Автором раздачи
   
Цитата
  • Похожие торренты
    Ответы
    Просмотры
    Последнее сообщение

Вернуться в Мистер Мерседес / Mr. Mercedes

Кто сейчас на конференции

Сейчас эту тему просматривают: нет зарегистрированных пользователей и гости: 1