Теория большого взрыва / The Big Bang Theory [S09] (2015) BDRip 1080p | Кураж-Бамбей по заказу Paramount Comedy

 Статистика раздачи 
Размер: 40.41 ГБ   |  Зарегистрирован: 07 май 2019, 13:59   |   .torrent скачан: 455 раз
Сидеров: 31  [ 0 байт/сек ]     Личеров: 31  [ 0 байт/сек ]  
  
Аватара пользователя
 
Раздал: 2.49 ТБ
Скачал: 50.54 ГБ
Ратио: 50.445
Сообщения: 208998
Стаж: 3 года 16 дней

Год выпуска: 2015
Страна: США
Жанр: Мелодрама, комедия
Продолжительность: ~ 00:20:00

Перевод: Профессиональный (одноголосый закадровый) Кураж-Бамбей по заказу Paramount Comedy

Режиссер: Марк Сендроуски, Питер Чакос, Энтони Джозеф Рич
В ролях: Джонни Галэки, Джим Парсонс, Кейли Куоко, Саймон Хелберг, Кунал Нэйэр, Мелисса Рауш, Майем Биалик, Кевин Сасмэн, Кэрол Энн Сьюзи, Джон Росс Боуи

Описание: Два блестящих физика, Леонард и Шелдон, «великие умы», которые понимают, как «работает вселенная». Но их гениальность ничуть не помогает им общаться с людьми, особенно с женщинами. Всё начинает меняться, когда напротив них поселяется красавица Пенни. Когда Леонард и Шелдон встречают Пенни, Леонард сразу же начинает интересоваться ею. Он видит в общении с Пенни огромную перспективу, вплоть до любви, однако Шелдон понимает, что мечтам его друга не суждено сбыться. Стоит также отметить пару странных друзей этих физиков: Воловиц, который любит употреблять фразы на разных языках, включая русский, и Раджеш Кутрапали, теряющий дар речи при виде женщин.



Релиз: За записи с телеканала Paramount Comedy спасибо PаrovozN

Качество: BDRip 1080p | TayTO
Контейнер: MKV
Видео: AVC, 1920x1080 (16:9), 23.976 fps, ~ 10.9 Mbps (0.220 bit/pixel)
Аудио 1: AC3, 48 KHz, 2 ch, 192 kbps (Paramount Comedy)
Аудио 2: AC3, 48 KHz, 6 ch, 640 kbps (Original)
Субтитры: Английские
Реклама: Отсутствует

Complete name : D:The.Big.Bang.Theory.S09.1080p.BDRipThe.Big.Bang.Theory.S09E01.1080p.BDRip.mkv
Format : Matroska
Format version : Version 4 / Version 2
File size : 1.68 GiB
Duration : 20 min 26 s
Overall bit rate : 11.8 Mb/s
Encoded date : UTC 2019-05-02 22:15:26
Writing application : mkvmerge v9.9.0 ('Pick Up') 32bit
Writing library : libebml v1.3.4 + libmatroska v1.4.5

Video
ID : 1
Format : AVC
Format/Info : Advanced Video Codec
Format profile : High@L4.1
Format settings : CABAC / 4 Ref Frames
Format settings, CABAC : Yes
Format settings, RefFrames : 4 frames
Codec ID : V_MPEG4/ISO/AVC
Duration : 20 min 26 s
Bit rate : 10.9 Mb/s
Width : 1 920 pixels
Height : 1 080 pixels
Display aspect ratio : 16:9
Frame rate mode : Constant
Frame rate : 23.976 (24000/1001) FPS
Color space : YUV
Chroma subsampling : 4:2:0
Bit depth : 8 bits
Scan type : Progressive
Bits/(Pixel*Frame) : 0.220
Stream size : 1.56 GiB (93%)
Writing library : x264 core 152 r2851 ba24899
Encoding settings : cabac=1 / ref=4 / deblock=1:-3:-3 / analyse=0x3:0x133 / me=umh / subme=10 / psy=1 / psy_rd=1.05:0.00 / mixed_ref=1 / me_range=32 / chroma_me=1 / trellis=2 / 8x8dct=1 / cqm=0 / deadzone=21,11 / fast_pskip=1 / chroma_qp_offset=-2 / threads=18 / lookahead_threads=3 / sliced_threads=0 / nr=0 / decimate=1 / interlaced=0 / bluray_compat=0 / constrained_intra=0 / bframes=8 / b_pyramid=2 / b_adapt=2 / b_bias=0 / direct=3 / weightb=1 / open_gop=0 / weightp=2 / keyint=250 / keyint_min=23 / scenecut=40 / intra_refresh=0 / rc=crf / mbtree=0 / crf=18.0 / qcomp=0.60 / qpmin=0 / qpmax=69 / qpstep=4 / ip_ratio=1.40 / pb_ratio=1.30 / aq=1:0.60
Language : English
Default : Yes
Forced : No

Audio #1
ID : 2
Format : AC-3
Format/Info : Audio Coding 3
Format settings, Endianness : Big
Codec ID : A_AC3
Duration : 20 min 26 s
Bit rate mode : Constant
Bit rate : 192 kb/s
Channel(s) : 2 channels
Channel positions : Front: L R
Sampling rate : 48.0 kHz
Frame rate : 31.250 FPS (1536 SPF)
Bit depth : 16 bits
Compression mode : Lossy
Stream size : 28.1 MiB (2%)
Language : Russian
Service kind : Complete Main
Default : Yes
Forced : No

Audio #2
ID : 3
Format : AC-3
Format/Info : Audio Coding 3
Format settings, Endianness : Big
Codec ID : A_AC3
Duration : 20 min 26 s
Bit rate mode : Constant
Bit rate : 640 kb/s
Channel(s) : 6 channels
Channel positions : Front: L C R, Side: L R, LFE
Sampling rate : 48.0 kHz
Frame rate : 31.250 FPS (1536 SPF)
Bit depth : 16 bits
Compression mode : Lossy
Stream size : 93.6 MiB (5%)
Language : English
Service kind : Complete Main
Default : No
Forced : No

Text
ID : 4
Format : UTF-8
Codec ID : S_TEXT/UTF8
Codec ID/Info : UTF-8 Plain Text
Duration : 20 min 21 s
Bit rate : 87 b/s
Count of elements : 342
Stream size : 13.1 KiB (0%)
Language : English
Default : No
Forced : No

Menu
00:00:00.000 : en:00:00:00.000
00:03:49.229 : en:00:03:49.229
00:10:56.906 : en:00:10:56.906
00:18:47.126 : en:00:18:47.126
00:19:58.447 : en:00:19:58.447

Не забывайте говорить Спасибо. Не уходите с раздачи!   
Торрент: Зарегистрирован [07 май 2019, 13:59]
Статус:
Проверен
 
.torrent скачан: 455 раз
Хэш: d371ce0135045e188ae3073df66a4622fdf1bbe9
Размер: 40.41 ГБ (43 387 165 249 байт)
   Стать Автором раздачи
   
Ничто так не успокаивает, как инструктаж по технике безопасности.
Цитата
  • Похожие торренты
    Ответы
    Просмотры
    Последнее сообщение

Вернуться в Теория большого взрыва / The Big Bang Theory

Кто сейчас на конференции

Сейчас эту тему просматривают: нет зарегистрированных пользователей и гости: 1