Клаустрофобы / Escape Room (2019) BDRip-AVC от ExKinoRay | iTunes

 Статистика раздачи 
Размер: 746.23 МБ   |  Зарегистрирован: 15 апр 2019, 15:26   |   .torrent скачан: 241 раз
Сидеров: 147  [ 0 байт/сек ]     Личеров: 33  [ 0 байт/сек ]  
  
Аватара пользователя
Главный редактор
Главный редактор
 
Раздал: 78.18 ТБ
Скачал: 3.73 ТБ
Ратио: 21.403
Сообщения: 209757
Стаж: 8 лет 7 месяцев 22 дня
Откуда: Санкт-Петербург

Информация о фильме
Название: Клаустрофобы
Оригинальное название: Escape Room
Год выпуска: 2019
Жанр: Триллер
Режиссер: Адам Робител
В ролях: Тейлор Расселл, Логан Миллер, Джей Эллис, Тайлер Лабин, Дебора Энн Уолл, Ник Додани, Йорик ван Вагенинген, Корнелиус Джини мл., Рассел Кроус, Барт Фаш

О фильме:
В этой истории судьбы шестерых людей, которые ранее были незнакомы, тесно переплелись. По сюжету "Клаустрофобов" таинственная организация всех их пригласила сыграть в квест. Наших героев заманили в эту игру благодаря солидному выигрышу, который получит победитель в конце прохождения квеста. Однако, очень скоро все шестеро участников квеста осознали, что для этой игры их выбрали не случайно. Они оказались втянуты в чью-то игру со смертью, где они самые обычные пешки. Им реально угрожает опасность, а на кону их драгоценные жизни.



Страна: ЮАР, США
Студия: Original Film
Продолжительность: 01:39:36
Перевод: Дублированный | iTunes

Файл
Формат: MKV
Качество: BDRip-AVC (BDRemux 1080p)
Видео: MPEG-4 AVC, 784x328, - 970 Кбит/с
Аудио: AAC-HE, 2 ch, - 76 Кбит/с
Субтитры: Русские (Forced, full), английские
Общее
Уникальный идентификатор : 252558537379286567389125995326712625086 (0xBE010146B16EFFE7E3C7FFE40964B7BE)
Полное имя : D:MOVIESEscape.Room.2019.BDRip-AVC.ExKinoRay.mkv
Формат : Matroska
Версия формата : Version 4 / Version 2
Размер файла : 746 Мбайт
Продолжительность : 1 ч. 39 м.
Общий поток : 1047 Кбит/сек
Дата кодирования : UTC 2019-04-15 12:08:05
Программа кодирования : mkvmerge v32.0.0 ('Astral Progressions') 64-bit
Библиотека кодирования : libebml v1.3.7 + libmatroska v1.5.0

Видео
Идентификатор : 1
Формат : AVC
Формат/Информация : Advanced Video Codec
Профиль формата : High@L4.1
Параметр CABAC формата : Да
Параметр RefFrames формата : 12 кадров
Идентификатор кодека : V_MPEG4/ISO/AVC
Продолжительность : 1 ч. 39 м.
Битрейт : 970 Кбит/сек
Ширина : 784 пикселя
Высота : 328 пикселей
Соотношение сторон : 2,40:1
Режим частоты кадров : Постоянный
Частота кадров : 23,976 (24000/1001) кадра/сек
Цветовое пространство : YUV
Субдискретизация насыщенности : 4:2:0
Битовая глубина : 8 бит
Тип развёртки : Прогрессивная
Бит/(Пиксели*Кадры) : 0.157
Размер потока : 690 Мбайт (93%)
Библиотека кодирования : x264 core 152 r2851kMod ba24899
Настройки программы : cabac=1 / ref=12 / deblock=1:-2:-2 / analyse=0x3:0x133 / me=umh / subme=10 / psy=1 / fade_compensate=0.00 / psy_rd=1.00:0.12 / mixed_ref=1 / me_range=32 / chroma_me=1 / trellis=2 / 8x8dct=1 / cqm=0 / deadzone=21,11 / fast_pskip=0 / chroma_qp_offset=-3 / threads=6 / lookahead_threads=1 / sliced_threads=0 / nr=0 / decimate=0 / interlaced=0 / bluray_compat=0 / constrained_intra=0 / bframes=12 / b_pyramid=2 / b_adapt=2 / b_bias=0 / direct=3 / weightb=1 / open_gop=0 / weightp=2 / keyint=240 / keyint_min=23 / scenecut=40 / intra_refresh=0 / rc_lookahead=40 / rc=2pass / mbtree=1 / bitrate=970 / ratetol=1.0 / qcomp=0.60 / qpmin=0 / qpmax=69 / qpstep=4 / cplxblur=20.0 / qblur=0.5 / ip_ratio=1.40 / aq=3:1.00
Default : Да
Forced : Нет

Аудио
Идентификатор : 2
Формат : AAC
Формат/Информация : Advanced Audio Codec
Профиль формата : HE-AAC / LC
Идентификатор кодека : A_AAC
Продолжительность : 1 ч. 39 м.
Битрейт : 76,0 Кбит/сек
Каналы : 2 канала
Расположение каналов : Front: L R
Частота : 48,0 КГц / 24,0 КГц
Частота кадров : 23,438 кадра/сек (1024 SPF)
Метод сжатия : С потерями
Задержка видео : 31 мс.
Размер потока : 54,2 Мбайт (7%)
Язык : Russian
Default : Да
Forced : Нет

Текст #1
Идентификатор : 3
Формат : UTF-8
Идентификатор кодека : S_TEXT/UTF8
Идентификатор кодека/Информация : UTF-8 Plain Text
Продолжительность : 1 ч. 34 м.
Битрейт : 0 бит/сек
ElementCount : 5
Размер потока : 178 байт (0%)
Заголовок : Forced
Язык : Russian
Default : Да
Forced : Да

Текст #2
Идентификатор : 4
Формат : UTF-8
Идентификатор кодека : S_TEXT/UTF8
Идентификатор кодека/Информация : UTF-8 Plain Text
Продолжительность : 1 ч. 38 м.
Битрейт : 93 бит/сек
ElementCount : 1356
Размер потока : 67,7 Кбайт (0%)
Заголовок : Full
Язык : Russian
Default : Нет
Forced : Нет

Текст #3
Идентификатор : 5
Формат : UTF-8
Идентификатор кодека : S_TEXT/UTF8
Идентификатор кодека/Информация : UTF-8 Plain Text
Продолжительность : 1 ч. 33 м.
Битрейт : 70 бит/сек
ElementCount : 1553
Размер потока : 48,6 Кбайт (0%)
Заголовок : Full
Язык : English
Default : Нет
Forced : Нет

Текст #4
Идентификатор : 6
Формат : UTF-8
Идентификатор кодека : S_TEXT/UTF8
Идентификатор кодека/Информация : UTF-8 Plain Text
Продолжительность : 1 ч. 37 м.
Битрейт : 72 бит/сек
ElementCount : 1764
Размер потока : 51,7 Кбайт (0%)
Заголовок : SDH
Язык : English
Default : Нет
Forced : Нет

Меню
00:00:00.000 : en:Chapter 1
00:04:36.026 : en:Chapter 2
00:09:25.648 : en:Chapter 3
00:14:08.765 : en:Chapter 4
00:19:46.102 : en:Chapter 5
00:25:55.220 : en:Chapter 6
00:33:08.945 : en:Chapter 7
00:37:27.162 : en:Chapter 8
00:43:05.082 : en:Chapter 9
00:50:06.170 : en:Chapter 10
00:53:58.569 : en:Chapter 11
01:03:15.291 : en:Chapter 12
01:09:07.894 : en:Chapter 13
01:16:14.695 : en:Chapter 14
01:22:48.755 : en:Chapter 15
01:30:27.881 : en:Chapter 16


Не забывайте говорить Спасибо. Не уходите с раздачи!   
Торрент: Зарегистрирован [15 апр 2019, 15:26]
Статус:
Проверен
 
.torrent скачан: 241 раз
Хэш: 6647fe9967d5b00bb84ae755259b797f6abf02fd
Размер: 746.23 МБ (782 476 054 байт)
   Стать Автором раздачи
   
Цитата

Вернуться в Зарубежное кино (HDRip, DVDRip)

Кто сейчас на конференции

Сейчас эту тему просматривают: нет зарегистрированных пользователей и гости: 1