Шедевр / Mi obra maestra (2018) HDRip от Portablius | iTunes

 Статистика раздачи 
Размер: 746.2 МБ   |  Зарегистрирован: 15 апр 2019, 09:40   |   .torrent скачан: 156 раз
Сидеров: 70  [ 0 байт/сек ]     Личеров: 5  [ 0 байт/сек ]  
  
Аватара пользователя
Главный редактор
Главный редактор
 
Раздал: 65.88 ТБ
Скачал: 3.64 ТБ
Ратио: 18.520
Сообщения: 205716
Стаж: 8 лет 5 месяцев 27 дней
Откуда: Санкт-Петербург

Информация о фильме
Название: Шедевр
Оригинальное название: Mi obra maestra
Год выхода: 2018
Жанр: Комедия
Режиссер: Гастон Дюпра
В ролях: Андреа Акатто, Лукас Аранда, Рауль Аревало, Махмуд Азим, Луис Брандони, Даниэла Кац, София Кондисциани, Эмилия Дупрат, Октавио Дупрат, Моника Дюпра

О фильме: Артуро — утонченный владелец художественной галереи в Буэнос-Айресе и беспринципный арт-дилер. Ренцо — угрюмый и циничный живописец, одинаково ненавидящий арт-критиков, тусовки, журналистов и клиентов, которые хотят получить шедевр на заказ. Несмотря на разность, эти двое были лучшими друзьями и партнёрами на протяжении многих лет, пока Артуро не придумал гениальную аферу.



Страна: Аргентина, Испания
Студия: Arco Libre, Hei Films, Instituto Nacional de Cine y Artes Audiovisuales
Продолжительность: 01:44:38
Перевод: Профессиональный (многоголосый, закадровый) | iTunes
Субтитры: нет

Файл
Кодек: XviD
Качество: HDRip
Видео: 688x288 (2.39:1), 24.000 fps, XviD build 73 ~859 kbps avg, 0.18 bit/pixel
Звук: 48 kHz, MPEG Layer 3, 2 ch, ~128.00 kbps avg

General
Complete name : Shedevr.2018.HDRip.Portablius.avi
Format : AVI
Format/Info : Audio Video Interleave
File size : 746 MiB
Duration : 1 h 44 min
Overall bit rate : 997 kb/s
Writing application : VirtualDubMod 1.5.10.3 | www.virtualdub-fr.org || (build 2550/release)
Writing library : VirtualDubMod build 2550/release

Video
ID : 0
Format : MPEG-4 Visual
Format profile : Advanced Simple@L5
Format settings : BVOP1 / Custom Matrix
Format settings, BVOP : 1
Format settings, QPel : No
Format settings, GMC : No warppoints
Format settings, Matrix : Custom
Codec ID : XVID
Codec ID/Hint : XviD
Duration : 1 h 44 min
Bit rate : 860 kb/s
Width : 688 pixels
Height : 288 pixels
Display aspect ratio : 2.40:1
Frame rate : 24.000 FPS
Color space : YUV
Chroma subsampling : 4:2:0
Bit depth : 8 bits
Scan type : Progressive
Compression mode : Lossy
Bits/(Pixel*Frame) : 0.181
Stream size : 643 MiB (86%)
Writing library : XviD 73

Audio
ID : 1
Format : MPEG Audio
Format version : Version 1
Format profile : Layer 3
Codec ID : 55
Codec ID/Hint : MP3
Duration : 1 h 44 min
Bit rate mode : Constant
Bit rate : 128 kb/s
Channel(s) : 2 channels
Sampling rate : 48.0 kHz
Frame rate : 41.667 FPS (1152 SPF)
Compression mode : Lossy
Stream size : 95.8 MiB (13%)
Alignment : Aligned on interleaves
Interleave, duration : 42 ms (1.00 video frame)
Interleave, preload duratio : 504 ms
Writing library : LAME3.99r
Encoding settings : -m s -V 4 -q 2 -lowpass 17 -b 128

Не забывайте говорить Спасибо. Не уходите с раздачи!   
Торрент: Зарегистрирован [15 апр 2019, 09:40] Для скачивания .torrent
необходима регистрация
Или скачать с помощью
MediaGet
Статус:
Проверен
 
.torrent скачан: 156 раз
Хэш: e1edd8c5c26a0be35dec7bc65e054e18362a2d8e
Размер: 746.2 МБ (782 448 640 байт)
   Стать Автором раздачи
   
Цитата
  • Похожие торренты
    Ответы
    Просмотры
    Последнее сообщение

Вернуться в Зарубежное кино (HDRip, DVDRip)

Кто сейчас на конференции

Сейчас эту тему просматривают: нет зарегистрированных пользователей и гости: 1